Скачать через торрент Раскрашенная кожа 2 Painted Skin: The Resurrection Фильм бесплатно в хорошем качестве torrent

Скачивайте на UnionPeer.org фильмы через торрент без регистрации. Новинки кино в хорошем качестве через торрент. На UnionPeer.org можно скачать через торрент фильмы 2014 и 2015 годов. Самые новые фильмы.

Скачать торрент Раскрашенная кожа 2 Painted Skin: The Resurrection бесплатно через .torrent фильм мультфильм сериал

Статистика раздачи
Размер:  10.71 GB   |    Зарегистрирован:  28 дней   |    .torrent скачан:  80 раз   |   
Раздают:  1  
 

Скачать Раскрашенная кожа 2 / Painted Skin: The Resurrection (2012) BDRip 1080p | P, L через torrent

 
Timeweb Many GEOs Sprinthost
загрузка...
 
Автор Сообщение

Galfimbul ghost

avatar Galfimbul ghost


Раскрашенная кожа 2 /Painted Skin: The Resurrection

Год выхода: 2012
Жанр: Фэнтези, боевик, триллер, драма
Режиссер: Вуершан
В ролях: Сюнь Чжоу, Кун Чен, Вэй Чжао, Ми Ян, Уилльям Фэн, Фэй Сян, Тинцзя Чэнь, Морган Бенуа, Цзюнь Цзе Цинь, Цзы Цзюнь Мао

О фильме:
Согласно древней легенде, чтобы стать смертным, демон должен прожить на земле несколько сот лет; но и этого недостаточно, чтобы ощутить весь спектр человеческих эмоций и научиться грустить. Для получения этих чувств демон должен найти человека, готового пожертвовать собственными чувствами и собственной бессмертной душой. Что может остановить демона, жаждущего познания? Только человек, который будет сражаться за свою душу и души других!



Страна: Китай
Студия: Kylin Pictures, Ningxia Film Group, Ningxia Film Studio
Продолжительность: 02:11:32
Перевод: Профессиональный многоголосый, любительский многоголосый

Файл
Кодек: x.264
Качество: BDRip 1080p
Видео: MPEG-4 AVC, 10.1 Mбит/с, 1920x816, 23.976 кадр/с
Аудио #1: Русский (АС3, 6 ch, 448 Кбит/с, 48.0 KHz) Профессиональный (многоголосый, закадровый) Кинолюкс
Аудио #2: Русский (АС3, 6 ch, 448 Кбит/с, 48.0 KHz) Любительский (многоголосый, закадровый) GREEN TEA
Аудио #3: Китайский (АС3, 6 ch, 640 Кбит/с, 48.0 KHz)
Субтитры: Русские (Full), английские, китайские
? Без Рекламы!
Источник: Painted.Skin.The.Resurrection.2012.1080p.Remux
General
Unique ID : 205108478172499843791654830537333464950 (0x9A4E74BC2793BA25B12ECC1DFFB2DF76)
Complete name : Painted.Skin.The.Resurrection.2012.BDRip.1080p.mkv
Format : Matroska
Format version : Version 4
File size : 10.7 GiB
Duration : 2 h 11 min
Overall bit rate : 11.7 Mb/s
Encoded date : UTC 2020-05-28 22:02:20
Writing application : mkvmerge v7.1.0 ('Good Love') 64bit built on Jul 27 2014 13:06:55
Writing library : libebml v1.3.0 + libmatroska v1.4.1

Video
ID : 1
Format : AVC
Format/Info : Advanced Video Codec
Format profile : High@L4.1
Format settings : CABAC / 5 Ref Frames
Format settings, CABAC : Yes
Format settings, Reference fra : 5 frames
Codec ID : V_MPEG4/ISO/AVC
Duration : 2 h 11 min
Bit rate : 10.1 Mb/s
Width : 1 920 pixels
Height : 816 pixels
Display aspect ratio : 2.35:1
Frame rate mode : Constant
Frame rate : 23.976 (24000/1001) FPS
Color space : YUV
Chroma subsampling : 4:2:0
Bit depth : 8 bits
Scan type : Progressive
Bits/(Pixel*Frame) : 0.269
Stream size : 9.28 GiB (87%)
Writing library : x264 core 157 r2958 57baac4
Encoding settings : cabac=1 / ref=5 / deblock=1:-3:-3 / analyse=0x3:0x113 / me=umh / subme=11 / psy=1 / psy_rd=1.00:0.00 / mixed_ref=1 / me_range=48 / chroma_me=1 / trellis=2 / 8x8dct=1 / cqm=0 / deadzone=21,11 / fast_pskip=1 / chroma_qp_offset=-2 / threads=18 / lookahead_threads=4 / sliced_threads=0 / nr=0 / decimate=1 / interlaced=0 / bluray_compat=0 / constrained_intra=0 / bframes=10 / b_pyramid=2 / b_adapt=2 / b_bias=0 / direct=3 / weightb=1 / open_gop=0 / weightp=2 / keyint=240 / keyint_min=24 / scenecut=40 / intra_refresh=0 / rc_lookahead=60 / rc=2pass / mbtree=1 / bitrate=10100 / ratetol=1.0 / qcomp=0.60 / qpmin=0 / qpmax=69 / qpstep=4 / cplxblur=20.0 / qblur=0.5 / vbv_maxrate=50000 / vbv_bufsize=60500 / nal_hrd=none / filler=0 / ip_ratio=1.40 / aq=1:1.00
Language : Chinese
Default : Yes
Forced : No
Color range : Limited
Color primaries : BT.709
Transfer characteristics : BT.709
Matrix coefficients : BT.709

Audio #1
ID : 2
Format : AC-3
Format/Info : Audio Coding 3
Commercial name : Dolby Digital
Codec ID : A_AC3
Duration : 2 h 11 min
Bit rate mode : Constant
Bit rate : 448 kb/s
Channel(s) : 6 channels
Channel layout : L R C LFE Ls Rs
Sampling rate : 48.0 kHz
Frame rate : 31.250 FPS (1536 SPF)
Compression mode : Lossy
Stream size : 422 MiB (4%)
Title : MVO | Кинолюкс
Language : Russian
Service kind : Complete Main
Default : Yes
Forced : No

Audio #2
ID : 3
Format : AC-3
Format/Info : Audio Coding 3
Commercial name : Dolby Digital
Codec ID : A_AC3
Duration : 2 h 11 min
Bit rate mode : Constant
Bit rate : 448 kb/s
Channel(s) : 6 channels
Channel layout : L R C LFE Ls Rs
Sampling rate : 48.0 kHz
Frame rate : 31.250 FPS (1536 SPF)
Compression mode : Lossy
Stream size : 422 MiB (4%)
Title : MVO | GREEN TEA
Language : Russian
Service kind : Complete Main
Default : No
Forced : No

Audio #3
ID : 4
Format : AC-3
Format/Info : Audio Coding 3
Commercial name : Dolby Digital
Codec ID : A_AC3
Duration : 2 h 11 min
Bit rate mode : Constant
Bit rate : 640 kb/s
Channel(s) : 6 channels
Channel layout : L R C LFE Ls Rs
Sampling rate : 48.0 kHz
Frame rate : 31.250 FPS (1536 SPF)
Compression mode : Lossy
Stream size : 602 MiB (5%)
Language : Chinese
Service kind : Complete Main
Default : No
Forced : No

Text #1
ID : 5
Format : UTF-8
Codec ID : S_TEXT/UTF8
Codec ID/Info : UTF-8 Plain Text
Duration : 2 h 1 min
Bit rate : 50 b/s
Count of elements : 805
Stream size : 45.1 KiB (0%)
Title : Russian 1 [Den Shark]
Language : Russian
Default : No
Forced : No

Text #2
ID : 6
Format : UTF-8
Codec ID : S_TEXT/UTF8
Codec ID/Info : UTF-8 Plain Text
Duration : 2 h 1 min
Bit rate : 44 b/s
Count of elements : 730
Stream size : 39.4 KiB (0%)
Title : Russian 2 [julz_nsk]
Language : Russian
Default : No
Forced : No

Text #3
ID : 7
Format : UTF-8
Codec ID : S_TEXT/UTF8
Codec ID/Info : UTF-8 Plain Text
Duration : 2 h 1 min
Bit rate : 26 b/s
Count of elements : 709
Stream size : 23.3 KiB (0%)
Language : English
Default : No
Forced : No

Text #4
ID : 8
Format : PGS
Muxing mode : zlib
Codec ID : S_HDMV/PGS
Codec ID/Info : Picture based subtitle format used on BDs/HD-DVDs
Duration : 2 h 1 min
Bit rate : 8 739 b/s
Count of elements : 1614
Stream size : 7.61 MiB (0%)
Language : Russian
Default : No
Forced : No

Text #5
ID : 9
Format : PGS
Muxing mode : zlib
Codec ID : S_HDMV/PGS
Codec ID/Info : Picture based subtitle format used on BDs/HD-DVDs
Duration : 2 h 1 min
Bit rate : 5 331 b/s
Count of elements : 1608
Stream size : 4.64 MiB (0%)
Language : English
Default : No
Forced : No

Text #6
ID : 10
Format : PGS
Muxing mode : zlib
Codec ID : S_HDMV/PGS
Codec ID/Info : Picture based subtitle format used on BDs/HD-DVDs
Duration : 2 h 1 min
Bit rate : 6 285 b/s
Count of elements : 1600
Stream size : 5.47 MiB (0%)
Language : Chinese
Default : No
Forced : No

Menu
00:00:00.000 : en:Chapter 1
00:05:00.000 : en:Chapter 2
00:10:00.000 : en:Chapter 3
00:15:00.000 : en:Chapter 4
00:20:00.000 : en:Chapter 5
00:25:00.000 : en:Chapter 6
00:30:00.000 : en:Chapter 7
00:35:00.000 : en:Chapter 8
00:40:00.000 : en:Chapter 9
00:45:00.000 : en:Chapter 10
00:50:00.000 : en:Chapter 11
00:55:00.000 : en:Chapter 12
01:00:00.000 : en:Chapter 13
01:05:00.000 : en:Chapter 14
01:10:00.000 : en:Chapter 15
01:15:00.000 : en:Chapter 16
01:20:00.000 : en:Chapter 17
01:25:00.000 : en:Chapter 18
01:30:00.000 : en:Chapter 19
01:35:00.000 : en:Chapter 20
01:40:00.000 : en:Chapter 21
01:45:00.000 : en:Chapter 22
01:50:00.000 : en:Chapter 23
01:55:00.000 : en:Chapter 24
02:00:00.000 : en:Chapter 25
02:05:00.000 : en:Chapter 26
02:10:00.000 : en:Chapter 27
Источник http://listRutor.org

Внимание! AdBlock блокирует показ скриншотов, все вопросы к разработчикам )))
Трекер:  [ 11-Июн-2020 08:50 ]

  

Скачать .torrent

Размер .torrent файла 27 KB


Размер: 10.71 GB
Хэш (hash) релиза: 0abd235b2b6203cd375f7367402b8a35274ca8df
Подписка на обновления:

Торренты, похожие на Раскрашенная кожа 2 Painted Skin: The Resurrection скачать торрент

Форум Название Автор Размер S L Добавлен
Азиатские фильмы ·· Раскрашенная кожа 2 / Painted Skin: The Resurrection / Hua Pi 2 (Вуершан / Wuershan) [2012, Китай, фэнтези, боевик, триллер, драма, HDRip] MVO (Кинолюкс) + Chi Galfimbul ghost 23475343362.19 GB 0 0 1420575674

23:21

6-Янв-15

Азиатские фильмы ·· Раскрашенная кожа 2 / Painted Skin: The Resurrection / Hua Pi 2 (Вуершан / Wuershan) [2012, Китай, фэнтези, боевик, триллер, драма, BDRip 1080p] MVO [GREEN TEA] + DVO [НТВ+] +Original Chines + Sub (rus, eng, chin) Galfimbul ghost 1395477111513 GB 0 0 1417991518

01:31

8-Дек-14

Зарубежные фильмы до 2016 ·· Раскрашенная кожа 2 / Painted Skin: The Resurrection / Hua Pi 2 (Вуершан) [2012, фэнтези, боевик, триллер, драма, HDRip] [НТВ+] Galfimbul ghost 15689400321.46 GB 0 0 1371909226

16:53

22-Июн-13

Зарубежные фильмы до 2016 ·· Раскрашенная кожа 2 / Painted Skin: The Resurrection / Hua Pi 2 (Вуершан) [2012, фэнтези, боевик, триллер, драма, HDRip] [НТВ+] Galfimbul ghost 21991690242.05 GB 0 0 1371908973

16:49

22-Июн-13

3D Фильмы, кино ·· Раскрашенная кожа 2 в 3Д / Painted Skin: The Resurrection / Hua Pi 2 3D (Уэршань / Wuershan) [2012, Китай, Фэнтези, боевик, триллер, драма, Blu-ray Remux 1080p] BD3D Galfimbul ghost 4573980262442.6 GB 0 0 1488210472

18:47

27-Фев-17

Зарубежные фильмы до 2016 ·· Раскрашенная кожа 2: Воскрешение / Painted Skin: The Resurrection / Hua Pi 2 (Вуершан / Wuershan) [2012, Китай, фэнтези, драма, сказка, BDRip 720p] MVO (GREEN TEA) + Sub (2xRus, Eng) + Original (Chi) Galfimbul ghost 93860359278.74 GB 0 0 1361723546

19:32

24-Фев-13

Зарубежные фильмы до 2016 ·· Раскрашенная кожа 2: Воскрешение / Painted Skin: The Resurrection / Hua Pi 2 (Вуершан / Wuershan) [2012, Китай, Фэнтези, боевик, триллер, драма, HDRip-AVC] Sub (Rus + Eng + Chi) + Orig Chi L 31077612742.89 GB 2 0 1348459620

07:07

24-Сен-12

Зарубежные фильмы до 2016 ·· Раскрашенная кожа 2: Воскрешение / Painted Skin: The Resurrection (Уэршань / Wuershan) [2012, Фэнтези, боевик, триллер, драма, BDRip] DVO (den904, DeadSno) Galfimbul ghost 22073487362.06 GB 0 0 1349715660

20:01

8-Окт-12

Зарубежные фильмы до 2016 ·· Раскрашенная кожа 2: Воскрешение / Painted Skin 2: The Resurrection / Hua Pi 2 (Уэршань / Wuershan) [2012, Китай, фэнтези, мелодрама, DVDRip] Sub rus Galfimbul ghost 15770607961.47 GB 0 0 1348919880

14:58

29-Сен-12

Superjob
dpd RU

Еще никто не оставлял запись к записи скачать торрент Раскрашенная кожа 2 Painted Skin: The Resurrection . Будь первым!

!Обратная связь