Скачать через торрент Ширли Shirley Фильм бесплатно в хорошем качестве torrent

Скачивайте на UnionPeer.org фильмы через торрент без регистрации. Новинки кино в хорошем качестве через торрент. На UnionPeer.org можно скачать через торрент фильмы 2014 и 2015 годов. Самые новые фильмы.

Скачать торрент Ширли Shirley бесплатно через .torrent фильм мультфильм сериал

Статистика раздачи
Размер:  7.51 GB   |    Зарегистрирован:  3 месяца 4 дня   |    .torrent скачан:  61 раз   |   

Пиры будут получены при скачивании

 

Скачать Ширли / Shirley (2020) WEB-DL 1080p | Sub через torrent

 
Sprinthost
загрузка...
 
Автор Сообщение

Galfimbul ghost

avatar Galfimbul ghost


Ширли /Shirley

Год выхода: 2020
Жанр: Триллер, драма, биография
Режиссер: Жозефин Декер
В ролях: Элизабет Мосс, Логан Лерман, Майкл Стулбарг, Одесса Янг, Райан Спан, Стив Винович, Аделинд Хоран, Молли Фэйхи, Эмили Декер, Аллен МакКалло, Энтони Манна, Молли Фэйхи, Эдвард О’Бленис, Райан Спан

О фильме:
1960-е. Американская писательница Ширли Джексон, известная своими страшными и мрачными историями, находится в мучительных поисках вдохновения. Ее муж, профессор Стэнли, приглашает молодого ассистента Фреда, приехавшего вместе с красавицей-женой Рози. Она оказывается восторженной поклонницей Ширли. Но у знаменитой писательницы есть свои секреты, и жизнь в одном доме с «гением ужасов» не пройдет для гостей бесследно.



Страна: США
Студия: Los Angeles Media Fund (LAMF), Killer Films, Mechanism Digital
Продолжительность: 01:46:46
Перевод: Субтитры

Файл
Кодек: AVC
Качество: WEB-DL 1080p | Shirley.2020.1080p.AMZN.WEB-DL.DDP5.1.H.264-NTG
Видео: MPEG-4 AVC, 9427 Kбит/с, 1920x1040, 23.976 кадр/с
Аудио #1: Английский (АС3, 6 ch, 640 Кбит/с, 48.0 KHz)
Субтитры: Русские (полные [StasSlender]), английские
? Без Рекламы!
Трейлер
Источник: Shirley.2020.1080p.AMZN.WEB-DL.DDP5.1.H.264-NTG
General
Unique ID : 190063900163723053264879842172129039114 (0x8EFCF9C553EDEEA3864B81CB6168D30A)
Complete name : Shirley.2020.AMZN.WEB-DL.1080p.Sub.Rus.mkv
Format : Matroska
Format version : Version 4
File size : 7.51 GiB
Duration : 1 h 46 min
Overall bit rate : 10.1 Mb/s
Encoded date : UTC 2020-06-13 17:43:26
Writing application : mkvmerge v7.1.0 ('Good Love') 64bit built on Jul 27 2014 13:06:55
Writing library : libebml v1.3.0 + libmatroska v1.4.1

Video
ID : 1
Format : AVC
Format/Info : Advanced Video Codec
Format profile : High@L4
Format settings : CABAC / 4 Ref Frames
Format settings, CABAC : Yes
Format settings, Reference fra : 4 frames
Codec ID : V_MPEG4/ISO/AVC
Duration : 1 h 46 min
Bit rate mode : Constant
Bit rate : 9 427 kb/s
Nominal bit rate : 10 000 kb/s
Width : 1 920 pixels
Height : 1 040 pixels
Display aspect ratio : 1.85:1
Frame rate mode : Constant
Frame rate : 23.976 (24000/1001) FPS
Color space : YUV
Chroma subsampling : 4:2:0
Bit depth : 8 bits
Scan type : Progressive
Bits/(Pixel*Frame) : 0.197
Stream size : 7.03 GiB (94%)
Language : English
Default : Yes
Forced : No
Color range : Limited
Color primaries : BT.709
Transfer characteristics : BT.709
Matrix coefficients : BT.709

Audio
ID : 2
Format : AC-3
Format/Info : Audio Coding 3
Commercial name : Dolby Digital
Codec ID : A_AC3
Duration : 1 h 46 min
Bit rate mode : Constant
Bit rate : 640 kb/s
Channel(s) : 6 channels
Channel layout : L R C LFE Ls Rs
Sampling rate : 48.0 kHz
Frame rate : 31.250 FPS (1536 SPF)
Compression mode : Lossy
Stream size : 489 MiB (6%)
Language : English
Service kind : Complete Main
Default : Yes
Forced : No

Text #1
ID : 3
Format : UTF-8
Codec ID : S_TEXT/UTF8
Codec ID/Info : UTF-8 Plain Text
Duration : 1 h 44 min
Bit rate : 67 b/s
Count of elements : 998
Stream size : 52.0 KiB (0%)
Title : Full [StasSlender]
Language : Russian
Default : Yes
Forced : No

Text #2
ID : 4
Format : UTF-8
Codec ID : S_TEXT/UTF8
Codec ID/Info : UTF-8 Plain Text
Duration : 1 h 41 min
Bit rate : 43 b/s
Count of elements : 1113
Stream size : 32.3 KiB (0%)
Language : English
Default : No
Forced : No

Text #3
ID : 5
Format : UTF-8
Codec ID : S_TEXT/UTF8
Codec ID/Info : UTF-8 Plain Text
Duration : 1 h 46 min
Bit rate : 47 b/s
Count of elements : 1470
Stream size : 36.6 KiB (0%)
Title : SDH
Language : English
Default : No
Forced : No
Источник http://listRutor.org

Внимание! AdBlock блокирует показ скриншотов, все вопросы к разработчикам )))
Трекер:  [ 14-Июн-2020 11:10 ]

  

Скачать .torrent

Размер .torrent файла 19 KB


Размер: 7.51 GB
Хэш (hash) релиза: 816d9a0b29d7054ae025e593cfb502798b23e612
Подписка на обновления:

Торренты, похожие на Ширли Shirley скачать торрент

Форум Название Автор Размер S L Добавлен
Зарубежные фильмы до 2016 ·· Ширли Валентайн / Shirley Valentine (Льюис Гилберт / Lewis Gilbert) [1989, США, Великобритания, драма, мелодрама, комедия, HDTVRip 720p] MVO (ТРК «Петербург-Пятый канал») + Original (Eng) Galfimbul ghost 79604676147.41 GB 0 0 1393950613

19:30

4-Мар-14

Зарубежные фильмы до 2016 ·· Сталь и шёлк / Iron and Silk (Марк Солзмэн / Mark Salzman, Ширли Сан / Shirley Sun) [1990, США, Япония, Китай, драма, VHSRip] AVO Гаврилов Galfimbul ghost 14500208641.35 GB 0 0 1364816859

14:47

1-Апр-13

Зарубежные фильмы до 2016 ·· Сталь и шёлк / Iron and Silk (Марк Солзмэн / Mark Salzman, Ширли Сан / Shirley Sun) [1990, США - Япония - Китай, драма, DVD5] AVO Гаврилов Galfimbul ghost 32379719683.02 GB 0 0 1364816819

14:46

1-Апр-13

Зарубежные фильмы до 2016 ·· Три фильма с Ширли Темпл (Shirley Temple) в главной роли / The Little Colonel. The Littlest Rebel. Wee Willie Winkie (Джон Форд (John Ford), Дэвид Батлер (David Butler),) [1937 г., мелодрама, TVRip] Galfimbul ghost 40669204483.79 GB 0 0 1364796129

09:02

1-Апр-13

Зарубежные сериалы ·· Отчаянные парни / Wild Boys / Сезон: 1 / Серии: 1 (из 13) (Ширли Баррет / Shirley Barrett) [2011, драма, приключения, вестерн, DVDRip] (ViruseProject & DreamRecords) L 515524608492 MB 0 0 1330714800

22:00

2-Мар-12

dpd RU

Еще никто не оставлял запись к записи скачать торрент Ширли Shirley . Будь первым!

!Обратная связь