Скачать через торрент Кошачий рай Nekopara бесплатно Аниме Все серии на русском torrent

Статистика раздачи
Размер:  54.37 GB   |    Зарегистрирован:  1 месяц 6 дней   |    .torrent скачан:  1 раз   |   

Пиры будут получены при скачивании

 

Скачать Кошачий рай / Nekopara [TV] [1-8 из 12] [без хардсаба] [RUS(ext), JAP+Sub] [2020, комедия, романтика, BDRemux] [1080p] через torrent

 
Sprinthost
загрузка...
 
Автор Сообщение

Galfimbul ghost

avatar Galfimbul ghost


Кошачий рай / Nekopara

Год выпуска: 2020
Страна: Япония
Жанр: комедия, романтика
Тип: TV
Продолжительность: 12 эп. по 24 мин.
Озвучка:

Многоголосая от Sharon & Silv & Hekomi & MyAska (AniLibria)
Многоголосая от Александр Русаков & Ирина Евтягина & Полина Ртищева & Татьяна Шамарина & Анастасия Портная & Анна Мосолова (Wakanim)

Русские субтитры: есть (отдельным файлом, формат .ass)
Перевод:

AtrosVonEmreis, KamiKotoRyu [Sovet Romantica]

Хардсаб: Нет
Режиссер: Ясутака Ямамото
Студия: Felix Film

Описание: В этом мире помимо людей появилась раса нэко – человекоподобных кошек, которые хоть и похожи на людей всё же остаются очень зависимыми от них. Нэко с момента появления сразу же стали любимыми питомцами в человеческих домах, платя за доброту и ласку верностью (и не только ей).

Одной из первых семей, в которых появились нэко была семья Минадзуки – известная кондитерская династия. Касё – наследник семьи и талантливый кондитер, который не очень ладит с родителями, решает переехать в Йокогаму и открыть собственную пекарню под названием «Patisserie La Soleil». Покидая дом Касё не смог взять с собой двух нэко, которых он нашёл на улице и выходил, но обосновавшись на новом месте он получил посылку от своей сестры, в которой оказались любимые нэко Касё – Ванилла и Чокола. Не сильно долго раздумывая они становятся официантками в новом бизнесе любимого хозяина.

Качество: Blu-Ray Remux
Формат: MKV
Видео кодек: AVC
Аудио кодек: FLAC
Видео: 1920x1080 (16:9) 23,976 fps ~36,9 Mbps 8bit
Аудио:
Jap FLAC, 48000Hz, ~1392 Kbps, 2ch
RUS 1 (ext) AAC, 48000Hz, ~128 Kbps, 2ch
RUS 2 (ext) AAC, 48000Hz, ~192 Kbps, 2ch

Чаптеры присутствуют.
01. Добро пожаловать в «La Soleil»!
02. Потерянный котенок?
03. Тот, о ком я думаю
04. В первый раз...!
05. Приключение Какао
06. Битвы без чести и достоинства!
07. Домашние кошки
08. Меланхолия Cигурэ

09. Подлинные чувства
10. О нет! Экзамен на продление колокольчика
11. Какао возвращает свой долг
Общее
Уникальный идентификатор : 141926960373934814440859471010094435752 (0x6AC62366F93CAF807F42A0697E0CCDA8)
Полное имя : Z:\Anime Release - working\Nekopara\[anti-raws]Nekopara ep.01[BDRemux].mkv
Формат : Matroska
Версия формата : Version 4 / Version 2
Размер файла : 6,38 Гбайт
Продолжительность : 23 м. 16 с.
Режим общего битрейта : Переменный
Общий поток : 39,2 Мбит/сек
Дата кодирования : UTC 2020-04-01 09:02:38
Программа кодирования : mkvmerge v28.2.0 (''The Awakening'') 64-bit
Библиотека кодирования : libebml v1.3.6 + libmatroska v1.4.9

Видео
Идентификатор : 2
Формат : AVC
Формат/Информация : Advanced Video Codec
Профиль формата : High@L4.1
Настройки формата : CABAC / 4 Ref Frames
Параметр CABAC формата : Да
Параметр RefFrames формата : 4 кадра
Идентификатор кодека : V_MPEG4/ISO/AVC
Продолжительность : 23 м. 16 с.
Вид битрейта : Переменный
Битрейт : 37,8 Мбит/сек
Максимальный битрейт : 40,0 Мбит/сек
Ширина : 1920 пикселей
Высота : 1080 пикселей
Соотношение сторон : 16:9
Режим частоты кадров : Постоянный
Частота кадров : 23,976 (24000/1001) кадра/сек
Цветовое пространство : YUV
Субдискретизация насыщенности : 4:2:0
Битовая глубина : 8 бит
Тип развёртки : Прогрессивная
Бит/(Пиксели*Кадры) : 0.761
Размер потока : 6,15 Гбайт (96%)
Default : Нет
Forced : Нет
Цветовой диапазон : Limited
Основные цвета : BT.709
Характеристики трансфера : BT.709
Коэффициенты матрицы : BT.709

Аудио
Идентификатор : 1
Формат : FLAC
Формат/Информация : Free Lossless Audio Codec
Идентификатор кодека : A_FLAC
Продолжительность : 23 м. 16 с.
Вид битрейта : Переменный
Битрейт : 1392 Кбит/сек
Каналы : 2 канала
Расположение каналов : Front: L R
Частота : 48,0 КГц
Частота кадров : 11,719 кадров/сек (4096 SPF)
Битовая глубина : 24 бит
Размер потока : 232 Мбайт (4%)
Библиотека кодирования : libFLAC 1.2.1 (UTC 2007-09-17)
Язык : Japanese
Default : Да
Forced : Нет

Меню
00:00:00.000 : :00:00:00.000
00:00:41.041 : :00:00:41.041
00:02:11.006 : :00:02:11.006
00:11:49.042 : :00:11:49.042
00:21:41.008 : :00:21:41.008
00:23:10.973 : :00:23:10.973


Внимание! AdBlock блокирует показ скриншотов, все вопросы к разработчикам )))
Трекер:  [ 28-Июн-2020 08:52 ]

  

Скачать .torrent

Размер .torrent файла 74 KB


Размер: 54.37 GB
Хэш (hash) релиза: d10ca4b86d951df000e885bd6d9dbce232202641
Подписка на обновления:
dpd RU

Еще никто не оставлял запись к записи скачать торрент Кошачий рай Nekopara . Будь первым!

!Обратная связь