Скачать через торрент 1917 1917 Фильм бесплатно в хорошем качестве torrent

Скачивайте на UnionPeer.org фильмы через торрент без регистрации. Новинки кино в хорошем качестве через торрент. На UnionPeer.org можно скачать через торрент фильмы 2014 и 2015 годов. Самые новые фильмы.

Скачать торрент 1917 1917 бесплатно через .torrent фильм мультфильм сериал

Статистика раздачи
Размер:  3.2 GB   |    Зарегистрирован:  4 месяца 1 день   |    .torrent скачан:  215 раз   |   

Пиры будут получены при скачивании

 

Скачать 1917 / 1917 (Сэм Мендес / Sam Mendes) [2019, Великобритания, США, военный, история, драма, BDRip-AVC] Dub + AVO (Ю. Сербин) + Sub (Rus, Eng) + Original Eng через torrent

 
 
Автор Сообщение

Galfimbul ghost

avatar Galfimbul ghost


1917 / 1917

Слоган: «Время — наш главный враг»
Страна: Великобритания, США
Жанр: военный, история, драма
Год выпуска: 2019
Продолжительность: 01:58:58

Перевод 1: Профессиональный (дублированный) Blu-Ray
Перевод 2: Авторский (одноголосый закадровый) Юрий Сербин
Оригинальная Аудиодорожка: английский
Субтитры: Русские (Форсированные, Полные), Английские (Full, SDH)
Навигация по главам: есть

Режиссер: Сэм Мендес / Sam Mendes

В ролях: Эндрю Скотт, Бенедикт Камбербэтч, Колин Фёрт, Ричард Мэдден, Дин-Чарльз Чепмен, Джордж МакКэй, Марк Стронг, Дэниэл Мейс, Эдриан Скарборо, Крис Уолли, Пип Картер, Энди Аполло, Пол Тинто, Джозеф Дэвис, Билли Постлтуэйт, Гэбриел Акувудике...

Описание: 1917 год, разгар Первой мировой войны. Двум юным солдатам поручают смертельно опасную миссию. Они должны пересечь вражескую территорию и доставить секретное сообщение, которое предотвратит неминуемую гибель сотен солдат… Смогут ли они выиграть гонку со временем?

|

Качество видео: BDRip-AVC 1917 (2019) BDRemux. NNM-Club
Формат видео: MKV

Видео: AVC, 1152x480 (2.40:1), 2505 kbps, 23.976 fps, 0.189 bit/pixel
Аудио 1: AC3 Dolby Digital, 3/2 (L,C,R,l,r) + LFE ch, 48.0 KHz, 448 Kbps | Дубляж |
Аудио 2: AC3 Dolby Digital, 3/2 (L,C,R,l,r) + LFE ch, 48.0 KHz, 448 Kbps | Ю. Сербин |
Аудио 3: AC3 Dolby Digital, 3/2 (L,C,R,l,r) + LFE ch, 48.0 KHz, 448 Kbps | Original |
Формат субтитров: softsub (SRT)
raw [info]: 1152x480p 1:1 @ 24000/1001 fps (cfr)
x264 [info]: using SAR=1/1
x264 [info]: using cpu capabilities: MMX2 SSE2Fast SSSE3 SSE4.2 AVX
x264 [info]: profile High, level 4.1, 4:2:0, 8-bit
x264 [info]: frame I:688 Avg QP:15.58 size: 71391
x264 [info]: frame P:39978 Avg QP:17.97 size: 28000
x264 [info]: frame B:130478 Avg QP:20.72 size: 8172
x264 [info]: consecutive B-frames: 2.0% 4.0% 11.6% 29.2% 16.8% 23.3% 3.3% 1.0% 0.8% 3.7% 0.8% 1.6% 0.6% 0.6% 0.9%
x264 [info]: mb I I16..4: 7.6% 73.6% 18.9%
x264 [info]: mb P I16..4: 0.4% 8.5% 1.5% P16..4: 35.8% 25.0% 21.9% 1.8% 0.6% skip: 4.5%
x264 [info]: mb B I16..4: 0.0% 0.6% 0.2% B16..8: 39.9% 13.3% 4.2% direct: 4.2% skip:37.7% L0:40.1% L1:42.1% BI:17.7%
x264 [info]: 8x8 transform intra:79.3% inter:61.5%
x264 [info]: coded y,uvDC,uvAC intra: 92.8% 84.9% 58.8% inter: 22.5% 13.0% 2.0%
x264 [info]: i16 v,h,dc,p: 35% 14% 10% 41%
x264 [info]: i8 v,h,dc,ddl,ddr,vr,hd,vl,hu: 8% 12% 5% 9% 13% 12% 16% 11% 15%
x264 [info]: i4 v,h,dc,ddl,ddr,vr,hd,vl,hu: 7% 9% 3% 9% 16% 13% 17% 11% 16%
x264 [info]: i8c dc,h,v,p: 41% 26% 17% 16%
x264 [info]: Weighted P-Frames: Y:7.8% UV:4.7%
x264 [info]: ref P L0: 51.5% 13.9% 11.7% 5.4% 4.0% 3.3% 2.7% 1.7% 1.5% 1.4% 1.3% 1.3% 0.1% 0.0%
x264 [info]: ref B L0: 78.3% 8.5% 4.5% 2.3% 1.7% 1.4% 1.1% 0.7% 0.7% 0.5% 0.2%
x264 [info]: ref B L1: 95.0% 5.0%
x264 [info]: kb/s:2504.56
General
Unique ID : 234895512568472761953497134131392111344 (0xB0B73AEAD57AB5D5A9D2BF32503D62F0)
Complete name : 1917 (2019) AVC.mkv
Format : Matroska
Format version : Version 4
File size : 3.20 GiB
Duration : 1 h 58 min
Overall bit rate : 3 851 kb/s
Movie name : 1917 / 1917 (2019)
Encoded date : UTC 2020-06-27 07:26:14
Writing application : mkvmerge v8.1.0 (''Psychedelic Postcard'') 64bit
Writing library : libebml v1.3.1 + libmatroska v1.4.2
Cover : Yes
Attachments : cover.jpg

Video
ID : 1
Format : AVC
Format/Info : Advanced Video Codec
Format profile : High@L4.1
Format settings : CABAC / 12 Ref Frames
Format settings, CABAC : Yes
Format settings, Reference : 12 frames
Codec ID : V_MPEG4/ISO/AVC
Duration : 1 h 58 min
Bit rate : 2 505 kb/s
Width : 1 152 pixels
Height : 480 pixels
Display aspect ratio : 2.40:1
Frame rate mode : Constant
Frame rate : 23.976 (24000/1001) FPS
Color space : YUV
Chroma subsampling : 4:2:0
Bit depth : 8 bits
Scan type : Progressive
Bits/(Pixel*Frame) : 0.189
Stream size : 2.08 GiB (65%)
Title : 1917 / 1917 (2019) By optik.1557
Writing library : x264 core 159 r2991 1771b55
Encoding settings : cabac=1 / ref=12 / deblock=1:-3:-2 / analyse=0x3:0x133 / me=umh / subme=10 / psy=1 / psy_rd=1.05:0.01 / mixed_ref=1 / me_range=32 / chroma_me=1 / trellis=2 / 8x8dct=1 / cqm=0 / deadzone=21,11 / fast_pskip=0 / chroma_qp_offset=-2 / threads=6 / lookahead_threads=1 / sliced_threads=0 / nr=0 / decimate=1 / interlaced=0 / bluray_compat=0 / constrained_intra=0 / bframes=14 / b_pyramid=2 / b_adapt=2 / b_bias=0 / direct=1 / weightb=1 / open_gop=0 / weightp=2 / keyint=250 / keyint_min=23 / scenecut=40 / intra_refresh=0 / rc_lookahead=60 / rc=crf / mbtree=0 / crf=18.1 / qcomp=0.70 / qpmin=0 / qpmax=69 / qpstep=4 / vbv_maxrate=50000 / vbv_bufsize=62500 / crf_max=0.0 / nal_hrd=none / filler=0 / ip_ratio=1.40 / pb_ratio=1.30 / aq=3:0.85
Language : English
Default : Yes
Forced : No
Color range : Limited
Matrix coefficients : BT.709

Audio #1
ID : 2
Format : AC-3
Format/Info : Audio Coding 3
Commercial name : Dolby Digital
Codec ID : A_AC3
Duration : 1 h 58 min
Bit rate mode : Constant
Bit rate : 448 kb/s
Channel(s) : 6 channels
Channel layout : L R C LFE Ls Rs
Sampling rate : 48.0 kHz
Frame rate : 31.250 FPS (1536 SPF)
Compression mode : Lossy
Stream size : 381 MiB (12%)
Title : Дубляж (Blu-Ray)
Language : Russian
Service kind : Complete Main
Default : Yes
Forced : No

Audio #2
ID : 3
Format : AC-3
Format/Info : Audio Coding 3
Commercial name : Dolby Digital
Codec ID : A_AC3
Duration : 1 h 58 min
Bit rate mode : Constant
Bit rate : 448 kb/s
Channel(s) : 6 channels
Channel layout : L R C LFE Ls Rs
Sampling rate : 48.0 kHz
Frame rate : 31.250 FPS (1536 SPF)
Compression mode : Lossy
Stream size : 381 MiB (12%)
Title : AVO (Юрий Сербин)
Language : Russian
Service kind : Complete Main
Default : No
Forced : No

Audio #3
ID : 4
Format : AC-3
Format/Info : Audio Coding 3
Commercial name : Dolby Digital
Codec ID : A_AC3
Duration : 1 h 58 min
Bit rate mode : Constant
Bit rate : 448 kb/s
Channel(s) : 6 channels
Channel layout : L R C LFE Ls Rs
Sampling rate : 48.0 kHz
Frame rate : 31.250 FPS (1536 SPF)
Compression mode : Lossy
Stream size : 381 MiB (12%)
Title : Original
Language : English
Service kind : Complete Main
Default : No
Forced : No

Text #1
ID : 5
Format : UTF-8
Codec ID : S_TEXT/UTF8
Codec ID/Info : UTF-8 Plain Text
Duration : 1 h 31 min
Bit rate : 1 b/s
Count of elements : 25
Stream size : 1.21 KiB (0%)
Title : Форсированные
Language : Russian
Default : Yes
Forced : No

Text #2
ID : 6
Format : UTF-8
Codec ID : S_TEXT/UTF8
Codec ID/Info : UTF-8 Plain Text
Duration : 1 h 49 min
Bit rate : 57 b/s
Count of elements : 837
Stream size : 45.7 KiB (0%)
Title : Полные
Language : Russian
Default : No
Forced : No

Text #3
ID : 7
Format : UTF-8
Codec ID : S_TEXT/UTF8
Codec ID/Info : UTF-8 Plain Text
Duration : 1 h 45 min
Bit rate : 35 b/s
Count of elements : 937
Stream size : 27.1 KiB (0%)
Title : Full
Language : English
Default : No
Forced : No

Text #4
ID : 8
Format : UTF-8
Codec ID : S_TEXT/UTF8
Codec ID/Info : UTF-8 Plain Text
Duration : 1 h 58 min
Bit rate : 40 b/s
Count of elements : 1473
Stream size : 35.4 KiB (0%)
Title : SDH
Language : English
Default : No
Forced : No

Menu
00:00:00.000 : en:Studio Logo
00:00:48.000 : en:Title Sequence
00:01:01.000 : en:Scene 3
00:11:21.000 : en:Scene 4
00:16:29.000 : en:Scene 5
00:25:45.000 : en:Scene 6
00:30:51.000 : en:Scene 7
00:44:37.000 : en:Scene 8
00:54:56.000 : en:Scene 9
01:06:34.000 : en:Scene 10
01:19:57.000 : en:Scene 11
01:23:00.000 : en:Scene 12
01:38:20.000 : en:Scene 13
01:49:31.000 : en:End Credits


Внимание! AdBlock блокирует показ скриншотов, все вопросы к разработчикам )))
Трекер:  [ 28-Июн-2020 08:52 ]

  

Скачать .torrent

Размер .torrent файла 16 KB


Размер: 3.2 GB
Хэш (hash) релиза: f4c0e706fbf5f9466a787840224533d754546b32
Подписка на обновления:

Торренты, похожие на 1917 1917 скачать торрент

Форум Название Автор Размер S L Добавлен
Зарубежные фильмы 2016-2019 (Новинки зарубежного кино) ·%· 1917 / 1917 (2019) BDRip-AVC | D, P, A | iTunes Galfimbul ghost 46312705034.31 GB 0 0 1587656438

18:40

23-Апр-20

Зарубежные фильмы 2016-2019 (Новинки зарубежного кино) ·%· 1917 / 1917 (2019) BDRip-HEVC 1080p от KORSAR | D, P, A Galfimbul ghost 74509380666.94 GB 0 0 1586859689

13:21

14-Апр-20

Зарубежные фильмы 2016-2019 (Новинки зарубежного кино) ·%· 1917 / 1917 (2019) BDRip 1080p от qqss44 & MegaPeer | iTunes Galfimbul ghost 80952351117.54 GB 0 0 1585921212

16:40

3-Апр-20

Зарубежные фильмы 2016-2019 (Новинки зарубежного кино) ·%· 1917 / 1917 (2019) HDRip от ExKinoRay | KПK | iTunes Galfimbul ghost 624545975596 MB 0 0 1585678226

21:10

31-Мар-20

Зарубежные фильмы 2016-2019 (Новинки зарубежного кино) ·%· 1917 / 1917 (2019) HDRip от ExKinoRay | iTunes Galfimbul ghost 783351965747 MB 0 0 1585591821

21:10

30-Мар-20

Зарубежные фильмы 2016-2019 (Новинки зарубежного кино) ·%· 1917 / 1917 (2019) BDRip-HEVC 1080p | iTunes Galfimbul ghost 55835924095.2 GB 0 0 1585492832

17:40

29-Мар-20

Зарубежные фильмы 2016-2019 (Новинки зарубежного кино) ·%· 1917 / 1917 (2019) BDRip-AVC от OlLanDGroup | iTunes Galfimbul ghost 782558913746 MB 0 0 1585332028

21:00

27-Мар-20

Зарубежные фильмы 2016-2019 (Новинки зарубежного кино) ·%· 1917 / 1917 (2019) BDRip от Twister & ExKinoRay | iTunes Galfimbul ghost 15109093361.41 GB 0 0 1585245091

20:51

26-Мар-20

Зарубежные фильмы 2016-2019 (Новинки зарубежного кино) ·%· 1917 / 1917 (2019) BDRip от Twister & ExKinoRay | iTunes Galfimbul ghost 22857759322.13 GB 0 0 1585245010

20:50

26-Мар-20

Зарубежные фильмы 2016-2019 (Новинки зарубежного кино) ·· 1917 / 1917 (2019) BDRip-AVC | iTunes Galfimbul ghost 29793325132.77 GB 0 0 1585132926

13:42

25-Мар-20

Зарубежные фильмы 2016-2019 (Новинки зарубежного кино) ·· 1917 / 1917 (2019) UHD BDRemux 2160p от селезень | 4K | HDR | Dolby Vision | iTunes Galfimbul ghost 7754014773172.21 GB 0 0 1585128012

12:20

25-Мар-20

Зарубежные фильмы 2016-2019 (Новинки зарубежного кино) ·%· 1917 / 1917 (2019) BDRip-AVC от ExKinoRay | iTunes Galfimbul ghost 24547124752.29 GB 0 0 1585084219

00:10

25-Мар-20

Зарубежные фильмы 2016-2019 (Новинки зарубежного кино) ·%· 1917 / 1917 (2019) UHD BDRemux 2160p от селезень | 4K | HDR | Dolby Vision TV | iTunes Galfimbul ghost 6940759354264.64 GB 0 0 1585082412

23:40

24-Мар-20

Зарубежные фильмы 2016-2019 (Новинки зарубежного кино) ·%· 1917 / 1917 (2019) UHD BDRemux 2160p от селезень | 4K | HDR | iTunes Galfimbul ghost 6677335101162.19 GB 0 0 1585078220

22:30

24-Мар-20

Зарубежные фильмы 2016-2019 (Новинки зарубежного кино) ·%· 1917 / 1917 (2019) BDRip от MegaPeer | iTunes Galfimbul ghost 15098015841.41 GB 0 0 1585077629

22:20

24-Мар-20

Зарубежные фильмы 2016-2019 (Новинки зарубежного кино) ·%· 1917 / 1917 (2019) BDRip от MegaPeer | iTunes Galfimbul ghost 22865260642.13 GB 0 0 1585076415

22:00

24-Мар-20

Зарубежные фильмы 2016-2019 (Новинки зарубежного кино) ·%· 1917 / 1917 (2019) BDRip 1080p от селезень | iTunes Galfimbul ghost 1319608774112.29 GB 0 0 1585075831

21:50

24-Мар-20

Зарубежные фильмы 2016-2019 (Новинки зарубежного кино) ·%· 1917 / 1917 (2019) BDRip 720p от селезень | iTunes Galfimbul ghost 62684443265.84 GB 0 0 1585075824

21:50

24-Мар-20

Зарубежные фильмы 2016-2019 (Новинки зарубежного кино) ·%· 1917 / 1917 (2019) BDRemux 1080p от селезень | iTunes Galfimbul ghost 3386255433231.54 GB 0 0 1585075816

21:50

24-Мар-20

Еще никто не оставлял запись к записи скачать торрент 1917 1917 . Будь первым!

!Обратная связь