Скачать через торрент Госпожа Кагуя: В любви как на войне бесплатно Аниме Все серии на русском torrent

Статистика раздачи
Размер:  3.88 GB   |    Зарегистрирован:  1 месяц 6 дней   |    .torrent скачан:  3 раза   |   

Пиры будут получены при скачивании

   
Sprinthost
загрузка...
 
Автор Сообщение

Galfimbul ghost

avatar Galfimbul ghost



Страна: Япония
Год выпуска: 2020
Жанр: комедия, романтика
Тип: TV
Продолжительность: 2 из 12 эп. по ~25 мин.
Режиссер: Омата Синъити
Студия:
Перевод:

русские субтитры от AniLibria (вспомогательные, полные) | .ass, встроенные

      Перевод: Аiso | Оформление: Sekai

английские субтитры от Funimation (полные) | .ass, встроенные
Озвучка:

многоголосая (закадровая) от Студийной Банды
Описание: Трудолюбивый Миюки Сироганэ и первая красавица Кагуя Синомия — два общепризнанных гения престижной академии Сютин, возглавляющие её студсовет. Они по-прежнему ведут свою любовную войну, отрицая чувства к друг другу, ведь признание в их романтическом поединке означает поражение!

Однако для текущего студсовета год подходит к концу. Пути товарищей разойдутся по разным классам, почти не оставив точек для пересечения. К тому же на горизонте возникает новый соперник на должность президента студсовета. Что будут делать ребята? И кто же наконец выйдет победителем в этой любовной войне?
© Nyase
Информационные ссылки: AniDB || World Art || MAL
Качество: BDRip
Тип видео: Без хардсаба
Формат: MKV
Наличие линковки: Нет
Релиз/Автор рипа: ReinForce
Видео: AVC (x264), 8 bit, 1920x1080 (16:9), 23.976 fps, ~10900 kbps
Аудио RUS (int): AAC, 48000 Hz, 2 ch, 320 kbps
Аудио JAP: FLAC, 48000 Hz, 2 ch, ~1500 kbps


ОбщееУникальный идентификатор : 22463636450853642481785902513851257469 (0x10E656C95CE1A2F4AF29CB383B54D27D)Полное имя : D:\Kaguya-sama.Love.Is.War.?.S02.1080p.BluRay.Rus.Jpn\Kaguya-sama.Love.Is.War.?.S02E01.Ai.Hayasaka.Wants.to.Stave.Them.Off.1080p.BluRay.Rus.Jpn.mkvФормат : MatroskaВерсия формата : Version 4Размер файла : 2,22 ГбайтПродолжительность : 25 м. 1 с.Режим общего битрейта : ПеременныйОбщий поток : 12,7 Мбит/секНазвание фильма : Госпожа Кагуя: в любви как на войне? / Kaguya-sama: Love Is War? / かぐや様は告らせたい?~天才たちの恋愛頭脳戦~ (2020) S02E01 Ай Хаясака хочет спасти положение / Ученический совет этого не делал / Госпожа Кагуя хочет выйти замуж / Госпожа Кагуя хочет праздника | Ai Hayasaka Wants to Stave Them Off / The Student Council Has Not Achieved Nirvana / Kaguya Wants to Get Married / Kaguya Wants to Celebrate | 早坂愛は防ぎたい / 生徒会は神ってない / かぐや様は結婚したい / かぐや様は祝いたいДата кодирования : UTC 2020-06-26 17:57:27Программа кодирования : mkvmerge v47.0.0 ('Black Flag') 64-bitБиблиотека кодирования : libebml v1.3.10 + libmatroska v1.5.2Обложка : YesAttachments : cover.jpg / Aero Matics Display Light.ttf / Aero_Matics_Display_Regular.ttf / akarinop.ttf / AuriolC.ttf / BIP.ttf / DIPLOMA.TTF / JAKOBC~2.TTF / PFKidsPro-GradeFive.ttf / v_10CentComics_v1.1.ttf / v_AstronautsInTrouble_v1.01.ttf / v_CCFaceFront-Regular_v1.28.ttf / v_I hate Comic Sans (Regular).ttf / v_RedSt0.3.ttf / v_SundayComics BB (Regular).ttf / 3892.ttf / 9585.ttf / 12173.TTF / Aero Matics Display Bold Italic.ttf / Aero Matics Display Italic.ttf / Aero Matics Display Light Italic.ttf / OpenSans-Semibold.ttf

ВидеоИдентификатор : 1Формат : AVCФормат/Информация : Advanced Video CodecПрофиль формата : High@L4Настройки формата : CABAC / 4 Ref FramesПараметр CABAC формата : ДаПараметр RefFrames формата : 4 кадраИдентификатор кодека : V_MPEG4/ISO/AVCПродолжительность : 25 м. 1 с.Битрейт : 10,9 Мбит/секШирина : 1920 пикселейВысота : 1080 пикселейСоотношение сторон : 16:9Режим частоты кадров : ПостоянныйЧастота кадров : 23,976 (24000/1001) кадра/секЦветовое пространство : YUVСубдискретизация насыщенности : 4:2:0Битовая глубина : 8 битТип развёртки : ПрогрессивнаяБит/(Пиксели*Кадры) : 0.218Размер потока : 1,90 Гбайт (86%)Заголовок : MPEG-4 AVC @ 10859 kbpsБиблиотека кодирования : x264 core 157Настройки программы : opencl=1 / cabac=1 / ref=4 / deblock=1:-2:-2 / analyse=0x3:0x113 / me=umh / subme=9 / psy=1 / psy_rd=0.70:0.00 / mixed_ref=0 / me_range=32 / chroma_me=1 / trellis=2 / 8x8dct=1 / cqm=0 / deadzone=21,11 / fast_pskip=1 / chroma_qp_offset=-2 / threads=8 / lookahead_threads=1 / sliced_threads=0 / nr=0 / decimate=1 / interlaced=0 / bluray_compat=0 / constrained_intra=0 / bframes=9 / b_pyramid=2 / b_adapt=2 / b_bias=0 / direct=3 / weightb=1 / open_gop=0 / weightp=2 / keyint=250 / keyint_min=23 / scenecut=40 / intra_refresh=0 / rc_lookahead=40 / rc=crf / mbtree=1 / crf=16.0 / qcomp=0.70 / qpmin=10 / qpmax=20 / qpstep=4 / ip_ratio=1.40 / aq=1:1.00Язык : JapaneseDefault : ДаForced : Нет

Аудио #1Идентификатор : 2Формат : AAC LCФормат/Информация : Advanced Audio Codec Low ComplexityИдентификатор кодека : A_AAC-2Продолжительность : 25 м. 1 с.Битрейт : 320 Кбит/секКаналы : 2 каналаChannelLayout : L RЧастота : 48,0 КГцЧастота кадров : 46,875 кадров/сек (1024 SPF)Метод сжатия : С потерямиРазмер потока : 57,3 Мбайт (3%)Заголовок : AAC 2.0 @ 320 kbps - Профессиональный (многоголосый закадровый) | Студийная БандаЯзык : RussianDefault : ДаForced : Нет

Аудио #2Идентификатор : 3Формат : FLACФормат/Информация : Free Lossless Audio CodecИдентификатор кодека : A_FLACПродолжительность : 25 м. 1 с.Вид битрейта : ПеременныйБитрейт : 1494 Кбит/секКаналы : 2 каналаChannelLayout : L RЧастота : 48,0 КГцЧастота кадров : 10,417 кадров/сек (4608 SPF)Битовая глубина : 24 битМетод сжатия : Без потерьРазмер потока : 267 Мбайт (12%)Заголовок : FLAC 2.0 @ 1494 kbpsБиблиотека кодирования : Lavf58.45.100Язык : JapaneseDefault : НетForced : Нет

Текст #1Идентификатор : 4Формат : ASSИдентификатор кодека : S_TEXT/ASSИдентификатор кодека/Информация : Advanced Sub Station AlphaПродолжительность : 23 м. 24 с.Битрейт : 77 бит/секElementCount : 82Метод сжатия : Без потерьРазмер потока : 13,4 Кбайт (0%)Заголовок : ASS - Forced (AniLibria)Язык : RussianDefault : ДаForced : Нет

Текст #2Идентификатор : 5Формат : ASSИдентификатор кодека : S_TEXT/ASSИдентификатор кодека/Информация : Advanced Sub Station AlphaПродолжительность : 23 м. 27 с.Битрейт : 269 бит/секElementCount : 536Метод сжатия : Без потерьРазмер потока : 46,4 Кбайт (0%)Заголовок : ASS - Full (AniLibria)Язык : RussianDefault : НетForced : Нет

Текст #3Идентификатор : 6Формат : ASSИдентификатор кодека : S_TEXT/ASSИдентификатор кодека/Информация : Advanced Sub Station AlphaПродолжительность : 23 м. 27 с.Битрейт : 178 бит/секElementCount : 503Метод сжатия : Без потерьРазмер потока : 30,6 Кбайт (0%)Заголовок : ASS - Full (Funimation)Язык : EnglishDefault : НетForced : Нет


File: D:\Kaguya-sama.Love.Is.War.?.S02.1080p.BluRay.Rus.Jpn\Kaguya-sama.Love.Is.War.?.S02E01.Ai.Hayasaka.Wants.to.Stave.Them.Off.1080p.BluRay.Rus.Jpn.mkv Duration: 00:25:01 (1501.01) Track #1: video (MPEG-4 AVC @ 10859 kbps) lang: jpn (2) codc: V_MPEG4/ISO/AVC -> H264/AVC (22) reso: 1920x1080 -> 16:9 fram: 23.976 fps rate: 10859 kbps (10859.4) dura: 00:25:01 (1500.96) size: 1.90 GB (2037446141) Track #2: audio (AAC 2.0 @ 320 kbps - Профессиональный (многоголосый закадровый) | Студийная Банда) lang: rus -> Russian (15) codc: A_AAC -> AAC (9) chan: 2 -> Stereo samp: 48000 Hz rate: 321 kbps (320.53) dura: 00:25:01 (1500.97) size: 57.35 MB (60138751) Track #3: audio (FLAC 2.0 @ 1494 kbps) lang: jpn -> Japanese (2) codc: A_FLAC -> Other (15) chan: 2 -> Stereo samp: 48000 Hz rate: 1494 kbps (1493.91) dura: 00:25:01 (1500.96) size: 267.30 MB (280286773) Track #4: subtitles (ASS - Forced (AniLibria)) lang: rus -> Russian (15) type: S_TEXT/ASS -> ASS (5) size: 13.36 KB (13676) Track #5: subtitles (ASS - Full (AniLibria)) lang: rus -> Russian (15) type: S_TEXT/ASS -> ASS (5) size: 46.38 KB (47493) Track #6: subtitles (ASS - Full (Funimation)) lang: Unknown (1) type: S_TEXT/ASS -> ASS (5) size: 30.63 KB (31369) Sizes: (check sanity) disk: 2.22 GB (2380775484) atts: 2.24 MB (2353462) trac: 2.21 GB (2377964203) [based on track size] bitr: 2.21 GB (2377870553) [based on bitrate] tdif: 447.09 KB (457819) 0.01% bdif: 538.54 KB (551468) 0.02%
1. Ai Hayasaka Wants to Stave Them Off / The Student Council Has Not Achieved Nirvana / Kaguya Wants to Get Married / Kaguya Wants to Celebrate
2. Kaguya Wants to Know / Kaguya Wants to Give a Gift / Chika Fujiwara Wants to Confirm It

http://uniondht.org/topic/1889453-gospozha-kaguya-v...-zunousen-2.html - BDRip / наличие русскоязычной дорожки


Внимание! AdBlock блокирует показ скриншотов, все вопросы к разработчикам )))
Трекер:  [ 28-Июн-2020 08:52 ]

  

Скачать .torrent

Размер .torrent файла 20 KB


Размер: 3.88 GB
Хэш (hash) релиза: a2bf777b7d872bfbf52110972e36682d7ca0a583
Подписка на обновления:

Торренты, похожие на Госпожа Кагуя: В любви как на войне скачать торрент

Форум Название Автор Размер S L Добавлен
Аниме | HD Rips ·· Госпожа Кагуя: В любви как на войне (ТВ-2) / Kaguya-sama wa Kokurasetai? Tensai-tachi no Renai Zunousen 2 [TV] [1-11 из 12] [Без хардсаба] [JAP, Sub] [2020, комедия, романтика, WEBRip] [1080p] Galfimbul ghost 1542296899214.36 GB 0 0 1593410775

09:06

29-Июн-20

dpd RU

Еще никто не оставлял запись к записи скачать торрент Госпожа Кагуя: В любви как на войне . Будь первым!

!Обратная связь