Скачать через торрент Кэрол и Тьюсдэй Carole & Tuesday бесплатно Аниме Все серии на русском torrent

Статистика раздачи
Размер:  29.55 GB   |    Зарегистрирован:  1 месяц 6 дней   |    .torrent скачан:  3 раза   |   

Пиры будут получены при скачивании

 

Скачать Кэрол и Тьюсдэй / Carole & Tuesday [TV] [24 из 24] [Без хардсаба] [JAP, Sub] [2019, драма, музыка, WEBRip] [1080p] через torrent

 
Sprinthost
загрузка...
 
Автор Сообщение

Galfimbul ghost

avatar Galfimbul ghost



Кэрол и Тьюсдей
Carole & Tuesday

Страна: Япония
Год выпуска: 2019
Жанр: повседневность, музыка, драма
Тип: TV
Продолжительность: 24 эп, ~23 мин
Режиссёр: Ватанабэ Синъитиро
Студия:
AniDB | World Art | MAL
Описание: Прошло уже пятьдесят лет с тех пор, как человечество начало эмигрировать на Марс. В это время люди превратились в пассивных потребителей, ведь все их нужды теперь обеспечивал ИИ.

Там, на Марсе, в центре города Альба-Сити выживает девушка по имени Кэрол. Она усердно трудится неполный рабочий день в надежде однажды стать музыкантом, но ей чего-то не хватает.

В провинциальном марсианском городке Хершел-Сити живёт другая девушка — Тьюсдей. Она из обеспеченной семьи и тоже мечтает стать музыкантом, однако никто не понимает её, ведь музыку теперь пишет ИИ, а не люди. Тьюсдей чувствует себя самым одиноким человеком в мире.

Случайная встреча сводит девушек вместе. Они обе хотят петь. Обе мечтают создавать музыку. И вместе у них наконец-то появляется шанс.

Двое могут создать лишь крохотную волну, но эта волна в конце концов может перерасти в нечто большее...
Перевод:

русские субтитры от Nisikino & Kotori & Arjento | .ass, внешние

Озвучка:

многоголосая от AniLibria (Amikiri & Cleo-chan & Anzen & Gomer) | .mka, внешние
Качество: BDRip
Тип релиза: Без хардсаба
Формат видео: MKV
Наличие линковки: Нет
Наличие частей: Нет
Релиз/Автор рипа: Moozzi2
Видео: AVC; 1920x1080; ~6 932 kb/s; 23,976 fps; 8 bits
Аудио: Japanese; FLAC; ~1 419 kb/s; 48.0 kHz; 2 ch
Аудио: Russian; AAC; ~128 kb/s; 48.0 kHz; 2 ch


GeneralUnique ID : 317210203665520064366028766100851834279 (0xEEA476868AF38D305CBD87992FD0BDA7)Complete name : Carole & Tuesday (BD 1920x1080 x.264 Flac)\[Moozzi2] Carole & Tuesday - 01 (BD 1920x1080 x.264 Flac).mkvFormat : MatroskaFormat version : Version 4File size : 1.33 GiBDuration : 22 min 52 sOverall bit rate mode : VariableOverall bit rate : 8 352 kb/sEncoded date : UTC 2020-01-27 21:59:23Writing application : mkvmerge v28.2.0 (''The Awakening'') 64-bitWriting library : libebml v1.3.6 + libmatroska v1.4.9

VideoID : 1Format : AVCFormat/Info : Advanced Video CodecFormat profile : High@L5Format settings : CABAC / 5 Ref FramesFormat settings, CABAC : YesFormat settings, Reference : 5 framesCodec ID : V_MPEG4/ISO/AVCDuration : 22 min 52 sBit rate : 6 932 kb/sWidth : 1 920 pixelsHeight : 1 080 pixelsDisplay aspect ratio : 16:9Frame rate mode : ConstantFrame rate : 23.976 (24000/1001) FPSColor space : YUVChroma subsampling : 4:2:0Bit depth : 8 bitsScan type : ProgressiveBits/(Pixel*Frame) : 0.139Stream size : 1.11 GiB (83%)Writing library : x264 core 157 r2935 545de2fEncoding settings : cabac=1 / ref=5 / deblock=1:1:1 / analyse=0x3:0x113 / me=umh / subme=9 / psy=1 / psy_rd=1.00:0.00 / mixed_ref=1 / me_range=32 / chroma_me=1 / trellis=1 / 8x8dct=1 / cqm=0 / deadzone=21,11 / fast_pskip=0 / chroma_qp_offset=-2 / threads=34 / lookahead_threads=2 / sliced_threads=0 / nr=0 / decimate=1 / interlaced=0 / bluray_compat=0 / stitchable=1 / constrained_intra=0 / bframes=3 / b_pyramid=2 / b_adapt=2 / b_bias=0 / direct=1 / weightb=1 / open_gop=0 / weightp=1 / keyint=240 / keyint_min=23 / scenecut=40 / intra_refresh=0 / rc_lookahead=40 / rc=crf / mbtree=1 / crf=16.0 / qcomp=0.65 / qpmin=0 / qpmax=69 / qpstep=4 / ip_ratio=1.40 / aq=1:1.00Language : JapaneseDefault : YesForced : No

AudioID : 2Format : FLACFormat/Info : Free Lossless Audio CodecCodec ID : A_FLACDuration : 22 min 52 sBit rate mode : VariableBit rate : 1 419 kb/sChannel(s) : 2 channelsChannel layout : L RSampling rate : 48.0 kHzFrame rate : 11.719 FPS (4096 SPF)Bit depth : 24 bitsCompression mode : LosslessStream size : 232 MiB (17%)Writing library : libFLAC 1.3.2 (UTC 2017-01-01)Language : JapaneseDefault : YesForced : No
1. True Colors
2. Born to Run
3. Fire and Rain
4. Video Killed the Radio Star
5. Every Breath You Take
6. Life Is a Carnival
7. Show Me the Way
8. All the Young Dudes
9. Dancing Queen
10. River Deep, Mountain High
11. With or Without You
12. We`ve Only Just Begun
13. Walk This Way
14. The Kids Are Alright
15. God Only Knows
16. A Natural Woman
17. Head over Heels
18. Only Love Can Break Your Heart
19. People Get Ready
20. Immigrant Song
21. It`s Too Late
22. Just Like Heaven
23. Don`t Stop Believin`
24. A Change Is Gonna Come


Внимание! AdBlock блокирует показ скриншотов, все вопросы к разработчикам )))
Трекер:  [ 28-Июн-2020 08:52 ]

  

Скачать .torrent

Размер .torrent файла 83 KB


Размер: 29.55 GB
Хэш (hash) релиза: effec5a5cd7b0b43a2ea9ac45d690a4adf39f85b
Подписка на обновления:

Торренты, похожие на Кэрол и Тьюсдэй Carole & Tuesday скачать торрент

Форум Название Автор Размер S L Добавлен
Аниме | HD Rips ·· Кэрол и Тьюсдэй / Carole & Tuesday [TV] [24 из 24] [Без хардсаба] [JAP, Sub] [2019, драма, музыка, WEBRip] [1080p] Galfimbul ghost 2176362179820.27 GB 0 0 1593410641

09:04

29-Июн-20

dpd RU

Еще никто не оставлял запись к записи скачать торрент Кэрол и Тьюсдэй Carole & Tuesday . Будь первым!

!Обратная связь