Скачать через торрент Ты, я и он You, Me and Him Фильм бесплатно в хорошем качестве torrent

Скачивайте на UnionPeer.org фильмы через торрент без регистрации. Новинки кино в хорошем качестве через торрент. На UnionPeer.org можно скачать через торрент фильмы 2014 и 2015 годов. Самые новые фильмы.

Скачать торрент Ты, я и он You, Me and Him бесплатно через .torrent фильм мультфильм сериал

Статистика раздачи
Размер:  1.45 GB   |    Зарегистрирован:  1 месяц 12 дней   |    .torrent скачан:  89 раз   |   
Раздают:  1  
 

Скачать Ты, я и он / You, Me and Him (Дэйзи Эйткенс / Daisy Aitkens) [2017, Великобритания, комедия, WEB-DLRip] Sub (Rus, Eng) + Original Eng через torrent

 
Sprinthost
загрузка...
 
Автор Сообщение

Galfimbul ghost

avatar Galfimbul ghost


Ты, я и он / You, Me and Him

Страна: Великобритания
Жанр: комедия
Год выпуска: 2017
Продолжительность: 01:38:01

Перевод: Субтитры
Субтитры: русские, английские
Оригинальная аудиодорожка: английский
Режиссер:
Дэйзи Эйткенс / Daisy Aitkens

В ролях:
Дэвид Теннант, Люси Панч, Фэй Марсей, Сара Пэриш, Джемма Джонс, Дэвид Уорнер, Нина Сосанья, Питер Дэвисон, Сэлли Филлипс, Джорджия Моффетт
Описание: Оливия и Алекс — лесбийская пара. Девушки давно живут вместе и друг друга очень любят. Оливия считает, что ей давно пора стать матерью, ведь годы поджимают. Она отправляется на ЭКО. Разочарованная тем, что её мнение подругу не интересует, Алекс отправляется на вечеринку, где напивается и занимается сексом с давно и безнадёжно влюблённым в неё Джоном и вскоре узнаёт, что беременна. Повеса и весельчак Джон совсем не готов к отцовству, но и оставить будущих мам наедине с проблемами не может.

Качество видео: WEB-DLRip
Формат видео: AVI

Видео: 720x384 (1.88:1), 23.976 fps, XviD build 73 ~1667 kbps avg, 0.25 bit/pixel
Аудио: 48 kHz, AC3 Dolby Digital, 3/2 (L,C,R,l,r) + LFE ch, ~448 kbps

Сэмпл



21
00:02:44,917 --> 00:02:46,374
– Чарльз, подготовишь то заявление?
– Да, конечно.

22
00:02:46,375 --> 00:02:49,500
А заодно поработаешь над улыбкой,
в честь последнего дня Софи?

23
00:02:51,125 --> 00:02:53,458
Как всегда, ужасающе.
Спасибо.

24
00:03:22,125 --> 00:03:23,208
Сюрприз!

25
00:03:23,458 --> 00:03:28,166
Нельзя так с людьми поступать!

26
00:03:31,333 --> 00:03:33,207
Конечно, жалко покидать фирму.

27
00:03:33,208 --> 00:03:34,999
Хотя надеюсь, что не прощаюсь
ни с кем из вас.

28
00:03:37,208 --> 00:03:40,582
Да, Оливия, большое спасибо за
сюрприз. Я знаю, это была твоя идея.

29
00:03:52,500 --> 00:03:54,875
А теперь и от меня небольшой сюрприз...

30
00:03:55,875 --> 00:03:57,542
Я буду мамой. Представляете?
У меня будет ребёнок.

31
00:03:58,208 --> 00:04:01,417
Спасибо.

32
00:04:28,083 --> 00:04:32,041
Брысь. Давай, отъебись!
Иди, поймай мышь...

33
00:04:32,750 --> 00:04:34,458
где-нибудь не здесь.


Формат                                   : AVI
Формат/Информация                        : Audio Video Interleave
Размер файла                             : 1,45 Гбайт
Продолжительность                        : 1 ч. 38 м.
Общий поток                              : 2 125 Кбит/сек
Название фильма                          : Ты, я и он_2017_WEB-DLRip
Программа кодирования                    : VirtualDubMod 1.5.10.3 | www.virtualdub-fr.org || (build 2550/release)
Авторское право                          : порошков

Видео
Идентификатор                            : 0
Формат                                   : MPEG-4 Visual
Профиль формата                          : Advanced Simple@L5
Настройки формата                        : BVOP1 / Custom Matrix
Параметр BVOP формата                    : 1
Параметр QPel формата                    : Нет
Параметр GMC формата                     : Без точки перехода
Параметр матрицы формата                 : Выборочная
Идентификатор кодека                     : XVID
Идентификатор кодека/Подсказка           : XviD
Продолжительность                        : 1 ч. 38 м.
Битрейт                                  : 1 667 Кбит/сек
Ширина                                   : 720 пикселей
Высота                                   : 384 пикселя
Соотношение сторон                       : 1,85:1
Частота кадров                           : 23,976 (24000/1001) кадра/сек
Цветовое пространство                    : YUV
Субдискретизация насыщенности            : 4:2:0
Битовая глубина                          : 8 бит
Тип развёртки                            : Прогрессивная
Метод сжатия                             : С потерями
Бит/(Пиксели*Кадры)                      : 0.252
Размер потока                            : 1,14 Гбайт (78%)
Библиотека кодирования                   : XviD 73

Аудио
Идентификатор                            : 1
Формат                                   : AC-3
Формат/Информация                        : Audio Coding 3
Коммерческое название                    : Dolby Digital
Идентификатор кодека                     : 2000
Продолжительность                        : 1 ч. 38 м.
Вид битрейта                             : Постоянный
Битрейт                                  : 448 Кбит/сек
Каналы                                   : 6 каналов
Channel layout                           : L R C LFE Ls Rs
Частота                                  : 48,0 КГц
Частота кадров                           : 31,250 кадров/сек (1536 SPF)
Метод сжатия                             : С потерями
Размер потока                            : 314 Мбайт (21%)
Выравнивание                             : Разделение по промежуткам
Продолжительность промежутка             : 42  мс. (1,00 видеокадр)
Время предзагрузки промежутка            : 500  мс.
Service kind                             : Complete Main


Внимание! AdBlock блокирует показ скриншотов, все вопросы к разработчикам )))
Трекер:  [ 28-Июн-2020 08:52 ]

  

Скачать .torrent

Размер .torrent файла 15 KB


Размер: 1.45 GB
Хэш (hash) релиза: c9b64e4a7c2779aa9d1d5869cb178fc236540be9
Подписка на обновления:
dpd RU

Еще никто не оставлял запись к записи скачать торрент Ты, я и он You, Me and Him . Будь первым!

!Обратная связь