Скачать через торрент Почти знамениты Military Wives Фильм бесплатно в хорошем качестве torrent

Скачивайте на UnionPeer.org фильмы через торрент без регистрации. Новинки кино в хорошем качестве через торрент. На UnionPeer.org можно скачать через торрент фильмы 2014 и 2015 годов. Самые новые фильмы.

Скачать торрент Почти знамениты Military Wives бесплатно через .torrent фильм мультфильм сериал

Статистика раздачи
Размер:  2.18 GB   |    Зарегистрирован:  4 месяца 1 день   |    .torrent скачан:  62 раза   |   

Пиры будут получены при скачивании

 

Скачать Почти знамениты / Military Wives (Питер Каттанео / Peter Cattaneo) [2019, Великобритания, драма, комедия, мюзикл, WEB-DLRip] Dub (iTunes) + Sub (Eng) + Original Eng через torrent

 
 
Автор Сообщение

Galfimbul ghost

avatar Galfimbul ghost


Почти знамениты / Military Wives

Страна: Великобритания
Жанр: драма, комедия, мюзикл
Год выпуска: 2019
Продолжительность: 01:52:46
Перевод: Профессиональный (дублированный) | iTunes
Субтитры: английские (full, SDH)
Оригинальная аудиодорожка: английский
Режиссер:
Питер Каттанео / Peter Cattaneo
В ролях: Кристин Скотт Томас, Шэрон Хорган, Эмма Лаундес, Гэби Френч, Лара Росси, Эми Джеймс-Келли, Индия Риа Амартейфио, Грег Уайз, Джейсон Флеминг, Лаура Чекли
Описание: Что объединяет светскую даму, неуправляемую продавщицу и новобрачную? Они умеют петь! Всего лишь нужно немного удачи и команда отчаянных женщин придумает хитроумный план, чтобы стать ближе к своей мечте.

Качество видео: WEB-DLRip
Формат видео: AVI

Видео: 720x304 (2.37:1), 23.976 fps, XviD build 73 ~1987 kbps avg, 0.38 bit/pixel
Аудио 1: 48 kHz, AC3 Dolby Digital, 3/2 (L,C,R,l,r) + LFE ch, ~384 kbps | русский
Аудио 2: 48 kHz, AC3 Dolby Digital, 3/2 (L,C,R,l,r) + LFE ch, ~384 kbps | английский

Сэмпл



Формат                                   : AVI
Формат/Информация                        : Audio Video Interleave
Профиль формата                          : OpenDML
Размер файла                             : 2,18 Гбайт
Продолжительность                        : 1 ч. 52 м.
Общий поток                              : 2 763 Кбит/сек
Название фильма                          : Почти знамениты_2019_WEB-DLRip
Программа кодирования                    : VirtualDubMod 1.5.10.3 | www.virtualdub-fr.org || (build 2550/release)
Авторское право                          : порошков

Видео
Идентификатор                            : 0
Формат                                   : MPEG-4 Visual
Профиль формата                          : Advanced Simple@L5
Настройки формата                        : BVOP1 / Custom Matrix
Параметр BVOP формата                    : 1
Параметр QPel формата                    : Нет
Параметр GMC формата                     : Без точки перехода
Параметр матрицы формата                 : Выборочная
Идентификатор кодека                     : XVID
Идентификатор кодека/Подсказка           : XviD
Продолжительность                        : 1 ч. 52 м.
Битрейт                                  : 1 977 Кбит/сек
Ширина                                   : 720 пикселей
Высота                                   : 304 пикселя
Соотношение сторон                       : 2,35:1
Частота кадров                           : 23,976 (24000/1001) кадра/сек
Цветовое пространство                    : YUV
Субдискретизация насыщенности            : 4:2:0
Битовая глубина                          : 8 бит
Тип развёртки                            : Прогрессивная
Метод сжатия                             : С потерями
Бит/(Пиксели*Кадры)                      : 0.377
Размер потока                            : 1,56 Гбайт (72%)
Библиотека кодирования                   : XviD 73

Аудио #1
Идентификатор                            : 1
Формат                                   : AC-3
Формат/Информация                        : Audio Coding 3
Коммерческое название                    : Dolby Digital
Идентификатор кодека                     : 2000
Продолжительность                        : 1 ч. 52 м.
Вид битрейта                             : Постоянный
Битрейт                                  : 384 Кбит/сек
Каналы                                   : 6 каналов
Channel layout                           : L R C LFE Ls Rs
Частота                                  : 48,0 КГц
Частота кадров                           : 31,250 кадров/сек (1536 SPF)
Метод сжатия                             : С потерями
Размер потока                            : 310 Мбайт (14%)
Выравнивание                             : Разделение по промежуткам
Продолжительность промежутка             : 42  мс. (1,00 видеокадр)
Время предзагрузки промежутка            : 500  мс.
Заголовок                                : rus
Service kind                             : Complete Main

Аудио #2
Идентификатор                            : 2
Формат                                   : AC-3
Формат/Информация                        : Audio Coding 3
Коммерческое название                    : Dolby Digital
Идентификатор кодека                     : 2000
Продолжительность                        : 1 ч. 52 м.
Вид битрейта                             : Постоянный
Битрейт                                  : 384 Кбит/сек
Каналы                                   : 6 каналов
Channel layout                           : L R C LFE Ls Rs
Частота                                  : 48,0 КГц
Частота кадров                           : 31,250 кадров/сек (1536 SPF)
Метод сжатия                             : С потерями
Размер потока                            : 310 Мбайт (14%)
Выравнивание                             : Разделение по промежуткам
Продолжительность промежутка             : 42  мс. (1,00 видеокадр)
Время предзагрузки промежутка            : 500  мс.
Заголовок                                : eng
Service kind                             : Complete Main


Внимание! AdBlock блокирует показ скриншотов, все вопросы к разработчикам )))
Трекер:  [ 28-Июн-2020 08:52 ]

  

Скачать .torrent

Размер .torrent файла 11 KB


Размер: 2.18 GB
Хэш (hash) релиза: c36311b9ba96e1f84180be4e50c68704d31eeb8b
Подписка на обновления:

Торренты, похожие на Почти знамениты Military Wives скачать торрент

Форум Название Автор Размер S L Добавлен
Зарубежные фильмы 2016-2019 (Новинки зарубежного кино) ·· Почти знамениты / Military Wives (Питер Каттанео / Peter Cattaneo) [2019, Великобритания, драма, комедия, мюзикл, WEB-DLRip] Dub (iTunes) Galfimbul ghost 15647805441.46 GB 0 0 1593324042

09:00

28-Июн-20

Еще никто не оставлял запись к записи скачать торрент Почти знамениты Military Wives . Будь первым!

!Обратная связь