Скачать через торрент Тар-тян, король джунглей Jungle King Tar-chan бесплатно Аниме Все серии на русском torrent

Статистика раздачи
Размер:  37.56 GB   |    Зарегистрирован:  1 месяц 6 дней   |    .torrent скачан:  2 раза   |   

Пиры будут получены при скачивании

   
Sprinthost
загрузка...
 
Автор Сообщение

Galfimbul ghost

avatar Galfimbul ghost


Jungle King Tar-chan
Тар-тян, король джунглей
Jungle no Ouja Taa-chan

Страна: Япония
Трансляция: c 14.10.1993 по 29.09.1994
Жанр: приключения, комедия
Продолжительность: ТВ 50 эп. по 25 мин.
Перевод:

Русские субтитры от hokuto_san
Режиссёр: Намба Хитоси
Снято по манге: Тар-тян, король джунглей
Автор оригинала: Токухиро Масая
Студия:
Описание:
Не считайте, что Тар-тян — лишь пародия на знаменитого Тарзана, Тар-тян — настоящий король джунглей. Ребёнком его оставили в саванне, поэтому вырастил его шимпанзе Этэкити. Теперь у него есть любимая жена Джейн, которая в своё время была топ-моделью в Нью-Йорке, а теперь обосновалась на природе. Жили бы они не тужили, но хрупкую гармонию нарушили браконьеры, с которыми Тар-тяну придётся сразиться, а помогут ему в этом верный друг Педро и мастер китайских боевых искусств Рё.
© Gerasya

Качество: BDRip [Moozzi2]

Тип видео: без хардсаба, без линковки

Формат видео: mkv

Видео кодек: x264

Аудио кодек: FLAC

Видео: x264, 8 bit, 1508x1080, 7000 Kbps, 23.976 fps

Аудио: FLAC, 48000Hz, ~350 Kbps, 2ch; Язык Японский

Субтитры: Русские, srt - внешним файлом.


ОбщееУникальный идентификатор : 61396142821136139449249185283177697437 (0x2E30778CD8EC90817598E8036653D09D)Полное имя : x:\xxx\xxx\[Moozzi2] Jungle no Ouja Tar-chan (BDRip 1508x1080 x264 FLAC)\[Moozzi2] Jungle no Ouja Tar-chan - 01 (BDRip 1508x1080 x264 FLAC).mkvФормат : MatroskaВерсия формата : Version 4Размер файла : 1,25 ГбайтПродолжительность : 24 м. 26 с.Режим общего битрейта : ПеременныйОбщий поток : 7309 Кбит/секДата кодирования : UTC 2019-04-15 23:47:29Программа кодирования : mkvmerge v28.2.0 (''The Awakening'') 64-bitБиблиотека кодирования : libebml v1.3.6 + libmatroska v1.4.9

ВидеоИдентификатор : 1Формат : AVCФормат/Информация : Advanced Video CodecПрофиль формата : High@L4Настройки формата : CABAC / 4 Ref FramesПараметр CABAC формата : ДаПараметр RefFrames формата : 4 кадраИдентификатор кодека : V_MPEG4/ISO/AVCПродолжительность : 24 м. 26 с.Битрейт : 7000 Кбит/секШирина : 1508 пикселейВысота : 1080 пикселейСоотношение сторон : 1,396Режим частоты кадров : ПостоянныйЧастота кадров : 23,976 (24000/1001) кадра/секЦветовое пространство : YUVСубдискретизация насыщенности : 4:2:0Битовая глубина : 8 битТип развёртки : ПрогрессивнаяБит/(Пиксели*Кадры) : 0.179Размер потока : 1,20 Гбайт (96%)Библиотека кодирования : x264 core 157 r2969 d4099ddНастройки программы : cabac=1 / ref=4 / deblock=1:-1:-1 / analyse=0x3:0x113 / me=umh / subme=8 / psy=1 / psy_rd=1.00:0.00 / mixed_ref=1 / me_range=24 / chroma_me=1 / trellis=2 / 8x8dct=1 / cqm=0 / deadzone=21,11 / fast_pskip=0 / chroma_qp_offset=-2 / threads=34 / lookahead_threads=5 / sliced_threads=0 / nr=0 / decimate=1 / interlaced=0 / bluray_compat=0 / stitchable=1 / constrained_intra=0 / bframes=3 / b_pyramid=2 / b_adapt=2 / b_bias=0 / direct=1 / weightb=1 / open_gop=0 / weightp=2 / keyint=240 / keyint_min=23 / scenecut=40 / intra_refresh=0 / rc_lookahead=50 / rc=2pass / mbtree=1 / bitrate=7000 / ratetol=1.0 / qcomp=0.60 / qpmin=0 / qpmax=69 / qpstep=4 / cplxblur=20.0 / qblur=0.5 / ip_ratio=1.40 / aq=1:1.00Язык : JapaneseDefault : ДаForced : Нет

АудиоИдентификатор : 2Формат : FLACФормат/Информация : Free Lossless Audio CodecИдентификатор кодека : A_FLACПродолжительность : 24 м. 26 с.Вид битрейта : ПеременныйБитрейт : 307 Кбит/секКаналы : 2 каналаChannelLayout : L RЧастота : 48,0 КГцЧастота кадров : 11,719 кадров/сек (4096 SPF)Битовая глубина : 16 битМетод сжатия : Без потерьРазмер потока : 53,7 Мбайт (4%)Библиотека кодирования : libFLAC 1.3.2 (UTC 2017-01-01)Язык : JapaneseDefault : ДаForced : Нет

01. Король джунглей.
02. Сражение в лесу.
03. Супер Тар-тян.
04. История о белке-летяге.
05. Король джунглей, Тар-тян!
06. Откуда этот бриллиант?
07. Додзё Тар-тяна.
08. Пугающий турнир.
09. Ловушка жестокого клана Темного Дракона.
10. Трагедия кланов запада.
11. Дуэль предначертанная судьбой.
12. Противостояние с Кулаком темного дракона.
13. Вся мощь короля джунглей.
14. Последний бой.
15. Возвращение домой.
16. Прекрасный убийца.
17. Возлюбленный Джейн?
18. Внезапная гостья.
19. Тайна семьи Хоган.
20. Трогательное воссоединение.
21. Предварительный матч начинается
22. Судьбоносный матч
23. Возвращение бойцовской чести
24. Фальшивая Маска Аполлона
25. Возьми себя в руки, Майкл!
26. Машина-убийца, Нид
27. Тар-тян сдулся?
28. Смертельный матч Майкла
29. Битва - Тар-тян против Нида
30. Финальная битва
31. Beautiful Challenger
32. The Fearsome Vampire
33. Tragedic Vampire Warrior
34. Mysterious Oranization: Cerberus
35. Strong Foe: Rose Warrior Mani
36. Tarzan`s Bleak Future
37. King Tan`s True Facade
38. The Strongest Vampire
39. Revival of Warriors
40. Battle to the Death
41. Premonition of a Strong Foe
42. Devil`s Incarnate
43. Sure-Win Tournament
44. Despicable Kali Gang
45. Liang Against Clone
46. Tarzan`s Worries
47. Metal Mask Man`s Tears
48. Clone Man Versus Tarzan
49. The Time of the Final Battle
50. The Great Reunion of Tarzan`s Family

Выбор видео, перевода, озвучки, а также типа сборки материала осуществляется релизером и не подлежит обсуждению.

Данный релиз предназначен для просмотра на ПК. Воспроизведение на иных проигрывателях не гарантируется. Для просмотра рекомендуется Media Player Classic с установленным пакетом кодеков K-Lite.
Данный релиз предназначен для просмотра с внешними субтитрами.


Для просмотра с субтитрами нужно: перекинуть файлы .srt из папки "RUS Subs [<автор(ы) перевода>]" в одну папку с видео - плеер подгрузит их автоматически при открытии видео.



Внимание! AdBlock блокирует показ скриншотов, все вопросы к разработчикам )))
Трекер:  [ 28-Июн-2020 08:52 ]

  

Скачать .torrent

Размер .torrent файла 194 KB


Размер: 37.56 GB
Хэш (hash) релиза: 875c101ad927dba02caaa841ef1763e00960a7b2
Подписка на обновления:
dpd RU

Еще никто не оставлял запись к записи скачать торрент Тар-тян, король джунглей Jungle King Tar-chan . Будь первым!

!Обратная связь