Скачать через торрент Прекрасная эпоха La Belle Époque Фильм бесплатно в хорошем качестве torrent

Скачивайте на UnionPeer.org фильмы через торрент без регистрации. Новинки кино в хорошем качестве через торрент. На UnionPeer.org можно скачать через торрент фильмы 2014 и 2015 годов. Самые новые фильмы.

Скачать торрент Прекрасная эпоха La Belle Époque бесплатно через .torrent фильм мультфильм сериал

Статистика раздачи
Размер:  2.2 GB   |    Зарегистрирован:  2 месяца 20 дней   |    .torrent скачан:  168 раз   |   

Пиры будут получены при скачивании

 

Скачать Прекрасная эпоха / La Belle Époque (Николя Бедос / Nicolas Bedos) [2019, Франция, Бельгия, Драма, мелодрама, комедия, BDRip-AVC] Dub + Sub (Rus, Fra) + Original Fra через torrent

 
Sprinthost
загрузка...
 
Автор Сообщение

Galfimbul ghost

avatar Galfimbul ghost


Прекрасная эпоха / La Belle Époquer

Страна: Франция, Бельгия
Жанр: Драма, мелодрама, комедия
Год выпуска: 2019
Продолжительность: 01:55:00

Перевод: Профессиональный (дублированный) iTunes
Оригинальная аудиодорожка: Французский
Субтитры: Русские (Полные), Французские (Полные)
Навигация по главам: есть

Режиссер: Николя Бедос / Nicolas Bedos

В ролях: Даниель Отой, Гийом Кане, Дория Тилье, Фанни Ардан, Пьер Ардити, Дени Подалидес, Микаэль Коэн, Жанн Арене, Bertrand Poncet, Бруно Раффаэлли...

Описание: Что если бы вы могли отправиться в любое время в прошлом по своему выбору? Именно такую услугу предоставляет компания, которая готова скрупулёзно восстановить детали любой эпохи на заказ. Одним из ее клиентов становится талантливый художник, переживающий кризис в отношениях со своей любимой женой. Он использует этот шанс, чтобы снова пережить тот день, когда много лет назад он встретил любовь всей своей жизни.

Доп. информация: | IMDB | КиноПоиск | Сэмпл |

Качество видео: BDRip-AVC
Формат видео: MKV

Видео: AVC, 1152x480 (2.40:1), 1970 kbps, 24.000 fps, 0.148 bit/pixel
Аудио 1: AC3 Dolby Digital, 3/2 (L,C,R,l,r) + LFE ch, 48.0 KHz, 384 Kbps
Аудио 2: AC3 Dolby Digital, 3/2 (L,C,R,l,r) + LFE ch, 48.0 KHz, 384 Kbps
Формат субтитров: softsub (SRT)
raw [info]: 1152x480p 1:1 @ 24/1 fps (cfr)
x264 [info]: using SAR=1/1
x264 [info]: using cpu capabilities: MMX2 SSE2Fast SSSE3 SSE4.2 AVX
x264 [info]: profile High, level 4.1, 4:2:0, 8-bit
x264 [info]: frame I:1702 Avg QP:17.06 size: 62480
x264 [info]: frame P:32337 Avg QP:18.81 size: 22568
x264 [info]: frame B:131562 Avg QP:21.23 size: 6551
x264 [info]: consecutive B-frames: 1.6% 1.1% 5.7% 12.5% 17.5% 52.3% 5.3% 1.0% 0.9% 0.4% 0.3% 0.3% 0.3% 0.2% 0.5%
x264 [info]: mb I I16..4: 6.8% 83.2% 9.9%
x264 [info]: mb P I16..4: 1.1% 9.4% 1.1% P16..4: 43.5% 24.2% 15.2% 0.3% 0.1% skip: 5.1%
x264 [info]: mb B I16..4: 0.0% 0.4% 0.1% B16..8: 45.3% 9.3% 2.3% direct: 3.9% skip:38.8% L0:44.3% L1:47.9% BI: 7.8%
x264 [info]: 8x8 transform intra:81.6% inter:71.1%
x264 [info]: coded y,uvDC,uvAC intra: 86.5% 82.2% 60.4% inter: 20.9% 19.6% 4.8%
x264 [info]: i16 v,h,dc,p: 41% 10% 6% 43%
x264 [info]: i8 v,h,dc,ddl,ddr,vr,hd,vl,hu: 13% 7% 6% 10% 14% 15% 13% 12% 11%
x264 [info]: i4 v,h,dc,ddl,ddr,vr,hd,vl,hu: 12% 6% 2% 10% 16% 17% 14% 12% 11%
x264 [info]: i8c dc,h,v,p: 40% 20% 22% 18%
x264 [info]: Weighted P-Frames: Y:3.5% UV:1.7%
x264 [info]: ref P L0: 49.4% 12.6% 16.7% 5.6% 4.7% 3.0% 2.6% 1.3% 1.3% 1.0% 1.0% 0.9% 0.0% 0.0%
x264 [info]: ref B L0: 77.6% 10.5% 4.7% 2.2% 1.7% 1.1% 0.8% 0.5% 0.4% 0.3% 0.1%
x264 [info]: ref B L1: 94.3% 5.7%
x264 [info]: kb/s:1968.72
General
Unique ID : 219199868595846729509455285790107750757 (0xA4E85BEC3CCFAC0A84E5683E9C1BD165)
Complete name : La Belle Époque (2019).mkv
Format : Matroska
Format version : Version 4
File size : 2.20 GiB
Duration : 1 h 55 min
Overall bit rate : 2 739 kb/s
Movie name : Прекрасная эпоха / La Belle Époque (2019)
Encoded date : UTC 2020-06-25 17:48:26
Writing application : mkvmerge v8.1.0 (''Psychedelic Postcard'') 64bit
Writing library : libebml v1.3.1 + libmatroska v1.4.2
Cover : Yes
Attachments : cover.jpg

Video
ID : 1
Format : AVC
Format/Info : Advanced Video Codec
Format profile : High@L4.1
Format settings : CABAC / 12 Ref Frames
Format settings, CABAC : Yes
Format settings, Reference : 12 frames
Codec ID : V_MPEG4/ISO/AVC
Duration : 1 h 55 min
Bit rate : 1 969 kb/s
Width : 1 152 pixels
Height : 480 pixels
Display aspect ratio : 2.40:1
Frame rate mode : Constant
Frame rate : 24.000 FPS
Color space : YUV
Chroma subsampling : 4:2:0
Bit depth : 8 bits
Scan type : Progressive
Bits/(Pixel*Frame) : 0.148
Stream size : 1.58 GiB (72%)
Title : La Belle Époque (2019) By optik.1557
Writing library : x264 core 159 r2991 1771b55
Encoding settings : cabac=1 / ref=12 / deblock=1:-3:-2 / analyse=0x3:0x133 / me=umh / subme=10 / psy=1 / psy_rd=1.05:0.01 / mixed_ref=1 / me_range=32 / chroma_me=1 / trellis=2 / 8x8dct=1 / cqm=0 / deadzone=21,11 / fast_pskip=0 / chroma_qp_offset=-2 / threads=6 / lookahead_threads=1 / sliced_threads=0 / nr=0 / decimate=1 / interlaced=0 / bluray_compat=0 / constrained_intra=0 / bframes=14 / b_pyramid=2 / b_adapt=2 / b_bias=0 / direct=1 / weightb=1 / open_gop=0 / weightp=2 / keyint=250 / keyint_min=24 / scenecut=40 / intra_refresh=0 / rc_lookahead=60 / rc=crf / mbtree=0 / crf=19.8 / qcomp=0.70 / qpmin=0 / qpmax=69 / qpstep=4 / vbv_maxrate=50000 / vbv_bufsize=62500 / crf_max=0.0 / nal_hrd=none / filler=0 / ip_ratio=1.40 / pb_ratio=1.30 / aq=3:0.85
Language : English
Default : Yes
Forced : No
Color range : Limited
Matrix coefficients : BT.709

Audio #1
ID : 2
Format : AC-3
Format/Info : Audio Coding 3
Commercial name : Dolby Digital
Codec ID : A_AC3
Duration : 1 h 54 min
Bit rate mode : Constant
Bit rate : 384 kb/s
Channel(s) : 6 channels
Channel layout : L R C LFE Ls Rs
Sampling rate : 48.0 kHz
Frame rate : 31.250 FPS (1536 SPF)
Compression mode : Lossy
Stream size : 316 MiB (14%)
Title : Дубляж (iTunes)
Language : Russian
Service kind : Complete Main
Default : Yes
Forced : No

Audio #2
ID : 3
Format : AC-3
Format/Info : Audio Coding 3
Commercial name : Dolby Digital
Codec ID : A_AC3
Duration : 1 h 55 min
Bit rate mode : Constant
Bit rate : 384 kb/s
Channel(s) : 6 channels
Channel layout : L R C LFE Ls Rs
Sampling rate : 48.0 kHz
Frame rate : 31.250 FPS (1536 SPF)
Compression mode : Lossy
Stream size : 316 MiB (14%)
Title : Original
Language : French
Service kind : Complete Main
Default : No
Forced : No

Text #1
ID : 4
Format : UTF-8
Codec ID : S_TEXT/UTF8
Codec ID/Info : UTF-8 Plain Text
Duration : 1 h 50 min
Bit rate : 115 b/s
Count of elements : 1498
Stream size : 93.1 KiB (0%)
Title : Полные
Language : Russian
Default : No
Forced : No

Text #2
ID : 5
Format : UTF-8
Codec ID : S_TEXT/UTF8
Codec ID/Info : UTF-8 Plain Text
Duration : 1 h 54 min
Bit rate : 69 b/s
Count of elements : 2089
Stream size : 58.8 KiB (0%)
Title : Full
Language : French
Default : No
Forced : No

Menu #1
00:00:00.000 : :Chapter 01
00:08:09.375 : :Chapter 02
00:19:41.000 : :Chapter 03
00:27:14.667 : :Chapter 04
00:35:17.792 : :Chapter 05
00:51:38.750 : :Chapter 06
01:00:39.750 : :Chapter 07
01:08:56.917 : :Chapter 08
01:17:29.500 : :Chapter 09
01:25:42.667 : :Chapter 10
01:35:14.417 : :Chapter 11
01:46:47.708 : :Chapter 12


Внимание! AdBlock блокирует показ скриншотов, все вопросы к разработчикам )))
Трекер:  [ 28-Июн-2020 08:52 ]

  

Скачать .torrent

Размер .torrent файла 11 KB


Размер: 2.2 GB
Хэш (hash) релиза: 667ac56e7ea76e9fd35180d8f3cc6da6e2732ace
Подписка на обновления:
dpd RU

lindaclark

Спасибо, что поделился.

Хотите добавить комментарий к записи скачать торрент Прекрасная эпоха La Belle Époque

!Обратная связь