Скачать через торрент Сделано в Бездне бесплатно Аниме Все серии на русском torrent

Статистика раздачи
Размер:  14.37 GB   |    Зарегистрирован:  1 месяц 14 дней   |    .torrent скачан:  16 раз   |   

Пиры будут получены при скачивании

 

Скачать Сделано в Бездне (фильмы) / Made in Abyss [Movie] [2 из 2] [Без хардсаба] [RUS(ext),ENG,JAP+Sub] [2019, приключения, детектив, драма, фэнтези, BDRip] [1080p] через torrent

 
Sprinthost
загрузка...
 
Автор Сообщение

Galfimbul ghost

avatar Galfimbul ghost



Год выпуска: 2019 | Страна: Япония
Жанр: приключения, детектив, драма, фэнтези
Продолжительность: 2 фильма по 110 мин.
Перевод:
субтитры от Hariton Harko
+english subtitles by HiDive
Озвучка: дубляж от Wakanim
+english audio by HiDive
Режиссер: Кодзима Масаюки

Студия: Kinema Citrus
Описание: Бесконечная система пещер, известная как Бездна, осталась единственным «белым» пятном в мире. Никто не знает, как глубока Большая дыра, населённая странными и страшными существами и полная таинственных древних артефактов, назначение которых неизвестно ныне живущим. Поколениям авантюристов не давала покоя загадка глубины Бездны. К бесстрашным исследователям опасной ямы в конце концов приклеилось прозвище «разведчики пещер». В Орте, городе вокруг Бездны, живёт маленькая сирота по имени Рико, которая мечтает стать великим исследователем пещер, какой была её мать, и разгадать загадку ямы. Однажды, исследуя темные глубины, она натыкается на мальчика, который оказывается роботом...
AniDB World Art MAL
Качество: BDRip | Рип: DeadNews [Kawaiika-Raws]
Тип релиза: без хардсаба, без линковки
Формат видео: MKV
Видео: HEVC, 10 bit, 1920x1080, 23.976fps, 8 Mbps
Аудио JAP: FLAC, 48.0 kHz, 2.0 ch, 650 Kbps
Аудио ENG (ext): AAC, 48.0 kHz, 2.0 ch, 160 Kbps
Аудио RUS (ext): Opus, 48.0 kHz, 2.0 ch, 184 Kbps


GeneralUnique ID : 138829589768500976952941935594108372620 (0x68719B3DB32A2E8206F844B39A00468C)Complete name : /run/media/deadnews/data1/releases/[Kawaiika-Raws] (2019) Made in Abyss (Movies) [BDRip 1920x1080 HEVC FLAC]/[Kawaiika-Raws] Made in Abyss Movie 1 [BDRip 1920x1080 HEVC FLAC].mkvFormat : MatroskaFormat version : Version 4File size : 7.21 GiBDuration : 1 h 58 minOverall bit rate mode : VariableOverall bit rate : 8 683 kb/sMovie name : Part 1: Journey`s DawnEncoded date : UTC 2020-05-15 10:29:14Writing application : mkvmerge v46.0.0 (''No Deeper Escape'') 64-bitWriting library : libebml v1.3.10 + libmatroska v1.5.2

VideoID : 1Format : HEVCFormat/Info : High Efficiency Video CodingFormat profile : Main 10@L4@MainCodec ID : V_MPEGH/ISO/HEVCDuration : 1 h 58 minBit rate : 8 045 kb/sWidth : 1 920 pixelsHeight : 1 080 pixelsDisplay aspect ratio : 16:9Frame rate mode : ConstantFrame rate : 23.976 (24000/1001) FPSColor space : YUVChroma subsampling : 4:2:0Bit depth : 10 bitsBits/(Pixel*Frame) : 0.162Stream size : 6.68 GiB (93%)Title : BDRip by DeadNewsWriting library : x265 3.3+29-50fde7e6037b:[Linux][GCC 9.3.0][64 bit] 10bitEncoding settings : cpuid=1049583 / frame-threads=1 / wpp / no-pmode / no-pme / no-psnr / no-ssim / log-level=2 / input-csp=1 / input-res=1920x1080 / interlace=0 / total-frames=170904 / level-idc=0 / high-tier=1 / uhd-bd=0 / ref=5 / no-allow-non-conformance / no-repeat-headers / annexb / no-aud / no-hrd / info / hash=0 / no-temporal-layers / open-gop / min-keyint=23 / keyint=250 / gop-lookahead=50 / bframes=16 / b-adapt=2 / b-pyramid / bframe-bias=0 / rc-lookahead=250 / lookahead-slices=1 / scenecut=40 / hist-scenecut=0 / radl=0 / no-splice / no-intra-refresh / ctu=64 / min-cu-size=8 / rect / amp / max-tu-size=32 / tu-inter-depth=2 / tu-intra-depth=2 / limit-tu=0 / rdoq-level=2 / dynamic-rd=0.00 / no-ssim-rd / signhide / no-tskip / nr-intra=0 / nr-inter=0 / no-constrained-intra / strong-intra-smoothing / max-merge=5 / limit-refs=2 / no-limit-modes / me=3 / subme=7 / merange=48 / temporal-mvp / no-frame-dup / no-hme / weightp / weightb / no-analyze-src-pics / deblock=1:-1 / no-sao / no-sao-non-deblock / rd=4 / selective-sao=0 / no-early-skip / no-rskip / no-fast-intra / no-tskip-fast / no-cu-lossless / b-intra / no-splitrd-skip / rdpenalty=0 / psy-rd=2.00 / psy-rdoq=2.00 / no-rd-refine / no-lossless / cbqpoffs=-2 / crqpoffs=-2 / rc=crf / crf=15.0 / qcomp=0.72 / qpstep=4 / stats-write=0 / stats-read=0 / ipratio=1.40 / pbratio=1.30 / aq-mode=3 / aq-strength=1.05 / cutree / zone-count=2 / zones: / start-frame=42124 / end-frame=43031 / bitrate-factor=0.400000 / zones: / start-frame=44316 / end-frame=44668 / bitrate-factor=0.600000 / no-strict-cbr / qg-size=32 / no-rc-grain / qpmax=69 / qpmin=0 / no-const-vbv / sar=1 / overscan=0 / videoformat=5 / range=0 / colorprim=1 / transfer=1 / colormatrix=1 / chromaloc=0 / display-window=0 / cll=0,0 / min-luma=0 / max-luma=1023 / log2-max-poc-lsb=8 / vui-timing-info / vui-hrd-info / slices=1 / no-opt-qp-pps / no-opt-ref-list-length-pps / no-multi-pass-opt-rps / scenecut-bias=0.05 / hist-threshold=0.01 / no-opt-cu-delta-qp / no-aq-motion / no-hdr10 / no-hdr10-opt / no-dhdr10-opt / no-idr-recovery-sei / analysis-reuse-level=0 / analysis-save-reuse-level=0 / analysis-load-reuse-level=0 / scale-factor=0 / refine-intra=0 / refine-inter=0 / refine-mv=3 / refine-ctu-distortion=0 / no-limit-sao / ctu-info=0 / no-lowpass-dct / refine-analysis-type=0 / copy-pic=1 / max-ausize-factor=1.0 / no-dynamic-refine / no-single-sei / no-hevc-aq / no-svt / no-field / qp-adaptation-range=1.00 / no-scenecut-aware-qpconformance-window-offsets / right=0 / bottom=0 / decoder-max-rate=0Language : JapaneseDefault : YesForced : NoColor range : LimitedColor primaries : BT.709Transfer characteristics : BT.709Matrix coefficients : BT.709

AudioID : 2Format : FLACFormat/Info : Free Lossless Audio CodecCodec ID : A_FLACDuration : 1 h 58 minBit rate mode : VariableBit rate : 636 kb/sChannel(s) : 2 channelsChannel layout : L RSampling rate : 48.0 kHzFrame rate : 10.417 FPS (4608 SPF)Bit depth : 16 bitsCompression mode : LosslessStream size : 541 MiB (7%)Title : LPCM->FLACWriting library : Lavf58.29.100Language : JapaneseDefault : YesForced : No

Menu00:00:00.000 : en:Avant00:00:21.021 : en:Part 0100:04:01.992 : en:Part 0200:18:44.957 : en:Part 0300:33:35.055 : en:Part 0400:50:03.083 : en:Part 0501:01:39.029 : en:Part 0601:13:08.301 : en:Part 0701:26:47.744 : en:Part 0801:41:21.909 : en:Part 0901:56:17.929 : en:Part 1001:57:10.523 : en:ED01:58:31.062 : en:Next

1 Journey`s Dawn
2 Wandering Twilight


Внимание! AdBlock блокирует показ скриншотов, все вопросы к разработчикам )))
Трекер:  [ 29-Июн-2020 08:53 ]

  

Скачать .torrent

Размер .torrent файла 146 KB


Размер: 14.37 GB
Хэш (hash) релиза: ea0fa4b2805d1b0046383e5dbe7fb06315367660
Подписка на обновления:
dpd RU

Еще никто не оставлял запись к записи скачать торрент Сделано в Бездне . Будь первым!

!Обратная связь