Скачать через торрент Кэрол и Тьюсдей Carole & Tuesday бесплатно Аниме Все серии на русском torrent

Статистика раздачи
Размер:  7.53 GB   |    Зарегистрирован:  1 месяц 5 дней   |    .torrent скачан:  2 раза   |   

Пиры будут получены при скачивании

 

Скачать Кэрол и Тьюсдей / Carole & Tuesday [TV] [24 из 24] [Без хардсаба] [RUS(int), JAP+Sub] [2019, драма, музыка, WEBRip] [720p] через torrent

 
Sprinthost
загрузка...
 
Автор Сообщение

Galfimbul ghost

avatar Galfimbul ghost


Кэрол и Тьюсдэй
Carole & Tuesday

Год выпуска: 2019
Страна: Япония
Жанр: драма, музыка
Тип: ТВ
Продолжительность: 24 эп., по 25 мин.
Основа: оригинальная идея
Режиссёр: Ватанабэ Синъитиро
Автор оригинала: Ватанабэ Синъитиро
Студия: BONES
Ссылки: World Art | AniDB | ANN
Описание: Пятьдесят лет назад человечество начало обживать новую планету: Марс. Культурой заправляет Искусственный Интеллект, человечество превратилось в потребителей. Но есть одна девочка, что живёт в Альба-Сити. Она работает на полставки и пытается стать музыкантом. Но её не покидает чувство, что чего-то не хватает. Имя ей Кэрол. Но есть другая девочка. Она из богатой семьи, живёт в провинциальном городке Хершел-Сити. Она мечтает стать музыкантом, но никто её не понимает. Она чувствует себя самым одиноким человеком в мире. Имя ей Тьюсдэй. Случайная встреча сводит их вместе. Они хотят петь. Хотят сочинять музыку. Вместе они чувствуют, что это их шанс.

© Anilibria
Качество: WEBRip
Тип релиза: Без хардсаба
Формат видео: MKV
Наличие линковки: Нет
Релиз/Автор рипа: PAS
Видео: x264, 1280x720, 1650 kbps, 23.976 fps, 10 bit
Аудио 1: AAC, 192 kbps, 48.0 kHZ, 2 ch. Язык Русский (в составе контейнера) | Озвучка: Anilibria - Amikiri, Cleo-chan, Anzen, Gomer
Аудио 2: AAC, 192 kbps, 48.0 kHZ, 2 ch. Язык Японский | Original
Субтитры 1: ASS, надписи+полные | Anilibria - Inari, Sekai, Dr.One. Язык субтитров Русский (в составе контейнера)
Субтитры 2: ASS, PAS | Язык субтитров Английский (в составе контейнера)


GeneralUnique ID : 106328331849178462189205148868458624859 (0x4FFE1781CF990ACCBA373A118A20B75B)Complete name : E:\Anime\Carole & Tuesday [720p]\[PAS] Carole & Tuesday - 01.mkvFormat : MatroskaFormat version : Version 4File size : 336 MiBDuration : 22 min 50 sOverall bit rate : 2 056 kb/sEncoded date : UTC 2019-05-28 17:59:37Writing application : mkvmerge v34.0.0 (''Sight and Seen'') 64-bitWriting library : libebml v1.3.7 + libmatroska v1.5.0Attachments : 10123.ttf / 10322_.ttf / a_Assuan Medium.TTF / v_Augie_v1.03.ttf / v_CCPulp Fiction (Medium).ttf / v_DigitalStrip_v1.5.ttf / MyriadPro-Semibold.ttf / MyriadPro-SemiboldIt.ttf / LinBiolinum_Rah.ttf

VideoID : 1Format : AVCFormat/Info : Advanced Video CodecFormat profile : High 4:4:4 Predictive@L5Format settings : CABAC / 16 Ref FramesFormat settings, CABAC : YesFormat settings, Reference : 16 framesCodec ID : V_MPEG4/ISO/AVCDuration : 22 min 50 sBit rate : 1 655 kb/sWidth : 1 280 pixelsHeight : 720 pixelsDisplay aspect ratio : 16:9Frame rate mode : ConstantFrame rate : 23.976 (24000/1001) FPSColor space : YUVChroma subsampling : 4:4:4Bit depth : 10 bitsScan type : ProgressiveBits/(Pixel*Frame) : 0.075Stream size : 270 MiB (80%)Writing library : x264 core 155 r2893 b00bcafEncoding settings : cabac=1 / ref=16 / deblock=1:-1:-1 / analyse=0x1:0x111 / me=umh / subme=10 / psy=1 / psy_rd=0.80:0.00 / mixed_ref=1 / me_range=32 / chroma_me=1 / trellis=2 / 8x8dct=0 / cqm=0 / deadzone=21,11 / fast_pskip=0 / chroma_qp_offset=4 / threads=22 / lookahead_threads=5 / sliced_threads=0 / nr=0 / decimate=0 / interlaced=0 / bluray_compat=0 / constrained_intra=0 / bframes=16 / b_pyramid=2 / b_adapt=2 / b_bias=0 / direct=3 / weightb=1 / open_gop=0 / weightp=2 / keyint=240 / keyint_min=23 / scenecut=40 / intra_refresh=0 / rc_lookahead=48 / rc=crf / mbtree=1 / crf=17.0 / qcomp=0.70 / qpmin=0 / qpmax=81 / qpstep=4 / ip_ratio=1.40 / aq=3:0.85Language : JapaneseDefault : YesForced : NoColor range : LimitedMatrix coefficients : BT.709

Audio #1ID : 2Format : AAC LCFormat/Info : Advanced Audio Codec Low ComplexityCodec ID : A_AAC-2Duration : 22 min 49 sBit rate : 192 kb/sChannel(s) : 2 channelsChannel layout : L RSampling rate : 48.0 kHzFrame rate : 46.875 FPS (1024 SPF)Compression mode : LossyStream size : 31.9 MiB (10%)Title : AnilibriaLanguage : RussianDefault : YesForced : Yes

Audio #2ID : 3Format : AAC LCFormat/Info : Advanced Audio Codec Low ComplexityCodec ID : A_AAC-2Duration : 22 min 49 sBit rate : 192 kb/sChannel(s) : 2 channelsChannel layout : L RSampling rate : 48.0 kHzFrame rate : 46.875 FPS (1024 SPF)Compression mode : LossyStream size : 31.9 MiB (10%)Language : JapaneseDefault : NoForced : No

Text #1ID : 4Format : ASSCodec ID : S_TEXT/ASSCodec ID/Info : Advanced Sub Station AlphaDuration : 9 min 6 sBit rate : 34 b/sCount of elements : 17Compression mode : LosslessStream size : 2.31 KiB (0%)Title : НадписиLanguage : RussianDefault : YesForced : Yes

Text #2ID : 5Format : ASSCodec ID : S_TEXT/ASSCodec ID/Info : Advanced Sub Station AlphaDuration : 21 min 14 sBit rate : 122 b/sCount of elements : 285Compression mode : LosslessStream size : 19.1 KiB (0%)Title : СубтитрыLanguage : RussianDefault : NoForced : No

Text #3ID : 6Format : ASSCodec ID : S_TEXT/ASSCodec ID/Info : Advanced Sub Station AlphaDuration : 21 min 14 sBit rate : 132 b/sCount of elements : 269Compression mode : LosslessStream size : 20.7 KiB (0%)Language : EnglishDefault : NoForced : No

Menu00:00:00.033 : en:Intro / en:Intro00:00:24.000 : en:Part A00:12:42.900 : en:Part B00:21:19.960 : en:ED


1. True Colors2. Born to Run3. Fire and Rain4. Video Killed the Radio Star5. Every Breath You Take6. Life Is a Carnival7. Show Me the Way8. All the Young Dudes9. Dancing Queen10. River Deep, Mountain High11. With or Without You12. We`ve Only Just Begun13. Walk This Way14. The Kids Are Alright15. God Only Knows16. A Natural Woman17. Head over Heels18. Only Love Can Break Your Heart19. People Get Ready20. Immigrant Song21. It`s Too Late22. Just Like Heaven23. Don`t Stop Believin`24. A Change Is Gonna Come

Сэмпл


Внимание! AdBlock блокирует показ скриншотов, все вопросы к разработчикам )))
Трекер:  [ 29-Июн-2020 09:03 ]

  

Скачать .torrent

Размер .torrent файла 20 KB


Размер: 7.53 GB
Хэш (hash) релиза: fb112372607ca16f16fe45e91e4c12fe8b249b37
Подписка на обновления:
dpd RU

Еще никто не оставлял запись к записи скачать торрент Кэрол и Тьюсдей Carole & Tuesday . Будь первым!

!Обратная связь