Mirei Imada - An Extremely Erotic Wife With An Explosive Ass Is Experiencing Her First Time Filming A Creampie!! After 3 Years Of Marriage, Is She Performing In This Video To Get Back At Her Husband For His Infidelity!? The Celebrity Wife Of A Dentis UnionPeer.org HD

2015, 2014 UnionPeer.org

.

4.94 GB   |    :  2 10    |    .torrent :  68    |   

   
 

Galfimbul

avatar Galfimbul



An Extremely Erotic Wife With An Explosive Ass Is Experiencing Her First Time Filming A Creampie!! After 3 Years Of Marriage, Is She Performing In This Video To Get Back At Her Husband For His Infidelity!? The Celebrity Wife Of A Dentist Mirei Imada 35 Years Old Her Adult Video Debut She Mesmerized Her Dentist Husband With Her Beauty, Sexual SK**ls, Eroticism, And Everything Else That We Expose Now For Your Viewing Pleasure!
巴庫希里極端色情妻子, 第一次拍攝中出禁令!! 結婚的第三年,出現在丈夫的調情的肚子里!? 牙醫的名人妻子 Imada Miho 35 歲 AV debut 美麗的外觀,性技能,顏色,吸引牙醫的丈夫,暴露一切!


C: : Mature, Debut, Creampie : 01:54:20 : :
: DTT-059 : Prestige :
: Mirei Imada
HD : 1080p : HDRip : MP4 : AVC, 1920 pixels x 1080 pixels, 29.960 FPS, 6000 kb/s
: AAC, 48.0 kHz, 48.0 kHz, 192 kb/s

General
Complete name : E:\po\DTT-059.mp4
Format : MPEG-4
Format profile : Base Media
Codec ID : isom (isom/iso2/avc1/mp41)
File size : 4.94 GiB
Duration : 1 h 54 min
Overall bit rate : 6 191 kb/s
Writing application : Lavf58.10.100

Video
ID : 1
Format : AVC
Format/Info : Advanced Video Codec
Format profile : [email protected]
Format settings : 1 Ref Frames
Format settings, CABAC : No
Format settings, Reference : 1 frame
Codec ID : avc1
Codec ID/Info : Advanced Video Coding
Duration : 1 h 54 min
Bit rate : 6 000 kb/s
Width : 1 920 pixels
Height : 1 080 pixels
Display aspect ratio : 16:9
Frame rate mode : Constant
Frame rate : 29.970 (30000/1001) FPS
Color space : YUV
Chroma subsampling : 4:2:0
Bit depth : 8 bits
Scan type : Progressive
Bits/(Pixel*Frame) : 0.097
Stream size : 4.78 GiB (97%)
Writing library : x264 core 155 r2901 7d0ff22
Encoding settings : cabac=0 / ref=1 / deblock=1:0:0 / analyse=0x1:0x111 / me=hex / subme=2 / psy=1 / psy_rd=1.00:0.00 / mixed_ref=0 / me_range=16 / chroma_me=1 / trellis=0 / 8x8dct=0 / cqm=0 / deadzone=21,11 / fast_pskip=1 / chroma_qp_offset=0 / threads=18 / lookahead_threads=6 / sliced_threads=0 / nr=0 / decimate=1 / interlaced=0 / bluray_compat=0 / constrained_intra=0 / bframes=0 / weightp=0 / keyint=250 / keyint_min=25 / scenecut=40 / intra_refresh=0 / rc_lookahead=10 / rc=abr / mbtree=1 / bitrate=6000 / ratetol=1.0 / qcomp=0.60 / qpmin=0 / qpmax=69 / qpstep=4 / ip_ratio=1.40 / aq=1:1.00
Codec configuration box : avcC

Audio
ID : 2
Format : AAC LC
Format/Info : Advanced Audio Codec Low Complexity
Codec ID : mp4a-40-2
Duration : 1 h 54 min
Bit rate mode : Constant
Bit rate : 192 kb/s
Channel(s) : 2 channels
Channel layout : L R
Sampling rate : 48.0 kHz
Frame rate : 46.875 FPS (1024 SPF)
Compression mode : Lossy
Stream size : 157 MiB (3%)
Default : Yes
Alternate group : 1


! AdBlock , )))
 ·  , , FAQ-
:  [ 19--2020 09:50 ]

  

.torrent

.torrent 25 KB


: 4.94 GB
(hash) : d243dc8332f43277645cea6bd0131ae52283310e
··
...

Mirei Imada - An Extremely Erotic Wife With An Explosive Ass Is Experiencing Her First Time Filming A Creampie!! After 3 Years Of Marriage, Is She Performing In This Video To Get Back At Her Husband For His Infidelity!? The Celebrity Wife Of A Dentis . !

!