Amateur Unknown - A Chubby S*****t With Colossal Tits - Erotic Filming From Just 5cm Away UnionPeer.org HD

2015, 2014 UnionPeer.org

.

5.58 GB   |    :  2 10    |    .torrent :  51    |   

   
 

Galfimbul

avatar Galfimbul



A Chubby S*****t With Colossal Tits - Erotic Filming From Just 5cm Away
厚 大 奶 學生 AV 採訪 + 密切接觸 5cm 強烈 肉 感覺 拍攝


C: : Big Tits, Chubby, Debut : 01:59:10 : :
: EBOD-754 : E-BODY :
: Amateur / Unknown
HD : 1080p : HDRip : MP4 : AVC, 1920 pixels x 1080 pixels, 29.960 FPS, 6171 kb/s
: AAC, 48.0 kHz, 48.0 kHz, 256 kb/s

General
ID : 1 (0x1)
Complete name : E:\po\EBOD-754.mp4
Format : BDAV
Format/Info : Blu-ray Video
File size : 5.58 GiB
Duration : 1 h 59 min
Overall bit rate mode : Variable
Overall bit rate : 6 701 kb/s
FileExtension_Invalid : m2ts mts ssif

Video
ID : 256 (0x100)
Menu ID : 1 (0x1)
Format : AVC
Format/Info : Advanced Video Codec
Format profile : [email protected]
Format settings : CABAC / 3 Ref Frames
Format settings, CABAC : Yes
Format settings, Reference : 3 frames
Codec ID : 27
Duration : 1 h 59 min
Bit rate mode : Variable
Bit rate : 6 171 kb/s
Nominal bit rate : 5 744 kb/s
Maximum bit rate : 5 744 kb/s
Width : 1 920 pixels
Height : 1 080 pixels
Display aspect ratio : 16:9
Frame rate : 29.970 (30000/1001) FPS
Color space : YUV
Chroma subsampling : 4:2:0
Bit depth : 8 bits
Scan type : MBAFF
Bits/(Pixel*Frame) : 0.099
Stream size : 5.14 GiB (92%)
Writing library : x264 core 157 r2945 72db437
Encoding settings : cabac=1 / ref=3 / deblock=1:1:0 / analyse=0x1:0x111 / me=hex / subme=7 / psy=1 / psy_rd=0.50:0.00 / mixed_ref=1 / me_range=16 / chroma_me=1 / trellis=1 / 8x8dct=0 / cqm=0 / deadzone=21,11 / fast_pskip=0 / chroma_qp_offset=-2 / threads=12 / lookahead_threads=2 / sliced_threads=0 / nr=0 / decimate=1 / interlaced=tff / bluray_compat=0 / constrained_intra=0 / bframes=3 / b_pyramid=0 / b_adapt=1 / b_bias=0 / direct=1 / weightb=1 / open_gop=0 / weightp=0 / keyint=15 / keyint_min=8 / scenecut=0 / intra_refresh=0 / rc_lookahead=40 / rc=cbr / mbtree=1 / bitrate=5744 / ratetol=1.0 / qcomp=0.60 / qpmin=10 / qpmax=69 / qpstep=4 / vbv_maxrate=5744 / vbv_bufsize=12000 / nal_hrd=vbr / filler=0 / ip_ratio=1.41 / aq=1:1.00

Audio
ID : 257 (0x101)
Menu ID : 1 (0x1)
Format : MPEG Audio
Format version : Version 1
Format profile : Layer 2
Codec ID : 3
Duration : 1 h 59 min
Bit rate mode : Constant
Bit rate : 256 kb/s
Channel(s) : 2 channels
Sampling rate : 48.0 kHz
Frame rate : 41.667 FPS (1152 SPF)
Compression mode : Lossy
Stream size : 218 MiB (4%)

Menu
ID : 4096 (0x1000)
Menu ID : 1 (0x1)
Duration : 1 h 59 min
List : 256 (0x100) (AVC) / 257 (0x101) (MPEG Audio)
Service name : Service01
Service provider : FFmpeg
Service type : digital television


! AdBlock , )))
 ·  , , FAQ-
:  [ 19--2020 22:50 ]

  

.torrent

.torrent 28 KB


: 5.58 GB
(hash) : 739b22f3f17b0675a7542e63c8687d2a38375788
··
...

Amateur Unknown - A Chubby S*****t With Colossal Tits - Erotic Filming From Just 5cm Away . !

!