Скачать порно через торрент Hyakkiyakou: Warashi Ночной парад сотни радостей Вараши UnionPeer.org бесплатно онлайн HD качество

Скачать новое порно 2015, 2014 новинки через торрент UnionPeer.org

Порно торрент бесплатно ЮнионПир.орг

Статистика раздачи
Размер:  1.59 GB   |    Зарегистрирован:  3 года 6 месяцев   |    .torrent скачан:  78 раз   |   

Пиры будут получены при скачивании

Качают:  1  
 

Скачать Hyakkiyakou: Warashi / Ночной парад сотни радостей Вараши (Kim Il-Bae, Sonsan Kikaku) (ep. 01 of 01) [cen] [2000, romance, mystery, straight, oral, kitsune, DVD5] [jap] через torrent

 
 
Автор Сообщение

Galfimbul

avatar Galfimbul


Hyakkiyakou: Warashi / 百喜夜行 ~わらし~ / Ночной парад сотни радостей Вараши

Год выпуска: 2000
Жанр: romance, mystery, straight, oral, kitsune
Серии: ep. 01 of 01
Продолжительность: 30 min
Цензура: Есть во всех файлах

Язык: Японский
Озвучка: Оригинальная
Режиссер: Kim Il-Bae
Автор оригинала: Ajisu Abeba
Студия: Sonsan Kikaku

Описание: Молодой человек находит в парке полуобнажённую девушку. Он приводит её к себе, чтобы привести её в порядок. На следующий день он отвозит её в свой новый дом в деревне. Так случайная встреча перерастает в любовь.

Качество видео: DVD5
Формат видео: MPEG
Видео: 720x480, AVC, 16/9, 29.970 (30000/1001), 8 000 kb/s.
Аудио 1: JAP, 48.0 kHz, 128 kb/s, 2 channels.
General
Complete name : E:\VIDEO_TS\VTS_01_1.VOB
Format : MPEG-PS
File size : 1 024 MiB
Duration : 19 min 17 s
Overall bit rate mode : Variable
Overall bit rate : 7 419 kb/s
Writing library : encoded by TMPGEnc Video Mastering Works 5 Version. 5.4.0.100

Video
ID : 224 (0xE0)
Format : MPEG Video
Format version : Version 2
Format profile : Main@Main
Format settings : CustomMatrix / BVOP
Format settings, BVOP : Yes
Format settings, Matrix : Custom
Format settings, GOP : M=3, N=16
Format settings, picture st : Frame
Duration : 19 min 17 s
Bit rate mode : Variable
Bit rate : 7 144 kb/s
Maximum bit rate : 8 000 kb/s
Width : 720 pixels
Height : 480 pixels
Display aspect ratio : 16:9
Frame rate : 29.970 (30000/1001) FPS
Standard : NTSC
Color space : YUV
Chroma subsampling : 4:2:0
Bit depth : 8 bits
Scan type : Interlaced
Scan order : Top Field First
Compression mode : Lossy
Bits/(Pixel*Frame) : 0.690
Time code of first frame : 00:00:00:00
Time code source : Group of pictures header
GOP, Open/Closed : Closed
Stream size : 986 MiB (96%)
Writing library : TMPGEnc Video Mastering Works 5 Version. 5.4.0.100
Color primaries : BT.601 NTSC
Transfer characteristics : BT.601
Matrix coefficients : BT.601

Audio
ID : 189 (0xBD)-128 (0x80)
Format : AC-3
Format/Info : Audio Coding 3
Commercial name : Dolby Digital
Muxing mode : DVD-Video
Duration : 19 min 17 s
Bit rate mode : Constant
Bit rate : 128 kb/s
Channel(s) : 2 channels
Channel layout : L R
Sampling rate : 48.0 kHz
Frame rate : 31.250 FPS (1536 SPF)
Compression mode : Lossy
Stream size : 17.7 MiB (2%)
Service kind : Complete Main

Menu


Внимание! AdBlock блокирует показ скриншотов, все вопросы к разработчикам )))
Трекер:  [ 29-Авг-2020 16:53 ]

  

Скачать .torrent

Размер .torrent файла 64 KB


Размер: 1.59 GB
Хэш (hash) релиза: c5f0f03e3e7e2a2e8b7147dd2951924d245ee94f

Торренты, похожие на Hyakkiyakou: Warashi Ночной парад сотни радостей Вараши скачать торрент

Форум Название Автор Размер S L Добавлен
Хентай и Манга, Мультфильмы и Комиксы, Рисунки / Hentai & Manga, Cartoons & Comics, Artwork ·· Hyakkiyakou: Warashi / Ночной парад сотни радостей Вараши (Kim Il-Bae, Sonsan Kikaku) (ep. 1 of 1) [cen] [2000, romance, mystery, straight, oral, kitsune, DVDRip] [jap / kor / rus / eng] [576p] Galfimbul 602525919575 MB 0 0 1489959131

00:32

20-Мар-17

Еще никто не оставлял запись к записи скачать торрент Hyakkiyakou: Warashi Ночной парад сотни радостей Вараши . Будь первым!

!Обратная связь