Скачать порно через торрент [Chaturbate.com] Moonshow UnionPeer.org бесплатно онлайн HD качество

Скачать новое порно 2015, 2014 новинки через торрент UnionPeer.org

Порно торрент бесплатно ЮнионПир.орг

Статистика раздачи
Размер:  4.33 GB   |    Зарегистрирован:  1 год 11 месяцев   |    .torrent скачан:  122 раза   |   

Пиры будут получены при скачивании

 

Скачать [Chaturbate.com] Moonshow (BananaBoy and Daddy) {2 clips} [2020 г., Amateur, Anal, Bareback, Big Dicks, Blowjob, Fingering, Flip-Flop, Gaping, Masturbation, Muscles, Older/Younger, Rimming, Russian, Uncut, WebCam., 1080p] через torrent

 
 
Автор Сообщение

Galfimbul

avatar Galfimbul




[Chaturbate.com] Moonshow (BananaBoy and Daddy)
Имя актера: BananaBoy, Daddy
Год производства: 2020 г.
Жанр: Amateur, Anal, Bareback, Big Dicks, Blowjob, Fingering, Flip-Flop, Kissing, Masturbation, Muscles, Older/Younger, Rimming, Russian, Sex Toys, Uncut, WebCam
Продолжительность: 01:22:00 и 00:32:22

Описание:
Real Name:BananaBoy and Daddy
Birth Date:Jan. 6, 1997
Age:23

Доп. информация:
Interested In: Men, Women, Trans, Couples
Location:Chaturbate
Language(s): English, Russian
Body Type:slim & athletic
Smoke / Drink: No / yes
Body Decorations:clear


Качество HD видео: 1080p
Формат видео: MP4
Видео: AVC, 1920x1080 (16:9), 30.000 fps, Общий битрейт: 5 270 Kbps
Аудио: AAC LC, 44.1 KHz, 2 ch
Общее
Идентификатор : 1 (0x1)
Полное имя : [Chaturbate] Moonshow 29.08.2020-1080p.mp4
Формат : MPEG-TS
Размер файла : 3,03 Гбайт
Продолжительность : 1 ч. 22 м.
Режим общего битрейта : Переменный
Общий поток : 5 270 Кбит/сек
FileExtension_Invalid : ts m2t m2s m4t m4s tmf ts tp trp ty

Видео
Идентификатор : 256 (0x100)
Идентификатор меню : 1 (0x1)
Формат : AVC
Формат/Информация : Advanced Video Codec
Профиль формата : High@L4
Настройки формата : CABAC / 1 Ref Frames
Параметр CABAC формата : Да
Параметр RefFrames формата : 1 кадр
Параметр GOP формата : M=1, N=15
Идентификатор кодека : 27
Продолжительность : 1 ч. 22 м.
Ширина : 1 920 пикселей
Высота : 1 080 пикселей
Соотношение сторон : 16:9
Частота кадров : 30,000 кадров/сек
Цветовое пространство : YUV
Субдискретизация насыщенности : 4:2:0
Битовая глубина : 8 бит
Тип развёртки : Прогрессивная

Аудио
Идентификатор : 257 (0x101)
Идентификатор меню : 1 (0x1)
Формат : AAC LC
Формат/Информация : Advanced Audio Codec Low Complexity
Версия формата : Version 4
Режим смешивания : ADTS
Идентификатор кодека : 15-2
Продолжительность : 1 ч. 22 м.
Вид битрейта : Переменный
Каналы : 2 канала
Channel layout : L R
Частота : 44,1 КГц
Частота кадров : 43,066 кадра/сек (1024 SPF)
Метод сжатия : С потерями
Задержка видео : 13 мс.



Качество HD видео: 1080p
Формат видео: MP4
Видео: AVC, 1920x1080 (16:9), 30.000 fps, 5 620 Kbps (0.090 bit/pixel)
Аудио: AAC LC, 44.1 KHz, 2 ch, 128 Kbps
Общее
Полное имя : [Chaturbate-Milkie] Moonshow-They just love each other 16.07.2020-1080p.mp4
Формат : MPEG-4
Профиль формата : Base Media
Идентификатор кодека : isom (isom/iso2/avc1/mp41)
Размер файла : 1,30 Гбайт
Продолжительность : 32 м. 22 с.
Общий поток : 5 755 Кбит/сек
Программа кодирования : Lavf58.13.100

Видео
Идентификатор : 1
Формат : AVC
Формат/Информация : Advanced Video Codec
Профиль формата : Baseline@L4
Настройки формата : 1 Ref Frames
Параметр CABAC формата : Нет
Параметр RefFrames формата : 1 кадр
Идентификатор кодека : avc1
Идентификатор кодека/Информация : Advanced Video Coding
Продолжительность : 32 м. 22 с.
Битрейт : 5 620 Кбит/сек
Ширина : 1 920 пикселей
Высота : 1 080 пикселей
Соотношение сторон : 16:9
Режим частоты кадров : Постоянный
Частота кадров : 30,000 кадров/сек
Цветовое пространство : YUV
Субдискретизация насыщенности : 4:2:0
Битовая глубина : 8 бит
Тип развёртки : Прогрессивная
Бит/(Пиксели*Кадры) : 0.090
Размер потока : 1,27 Гбайт (98%)
Библиотека кодирования : x264 core 155
Настройки программы : cabac=0 / ref=1 / deblock=0:0:0 / analyse=0:0 / me=dia / subme=0 / psy=1 / psy_rd=1.00:0.00 / mixed_ref=0 / me_range=16 / chroma_me=1 / trellis=1 / 8x8dct=0 / cqm=0 / deadzone=21,11 / fast_pskip=1 / chroma_qp_offset=0 / threads=12 / lookahead_threads=2 / sliced_threads=0 / nr=0 / decimate=1 / interlaced=0 / bluray_compat=0 / constrained_intra=0 / bframes=0 / weightp=0 / keyint=250 / keyint_min=25 / scenecut=0 / intra_refresh=0 / rc=crf / mbtree=0 / crf=23.0 / qcomp=0.60 / qpmin=0 / qpmax=69 / qpstep=4 / ip_ratio=1.40 / aq=0
Codec configuration box : avcC

Аудио
Идентификатор : 2
Формат : AAC LC
Формат/Информация : Advanced Audio Codec Low Complexity
Идентификатор кодека : mp4a-40-2
Продолжительность : 32 м. 22 с.
Вид битрейта : Постоянный
Битрейт : 128 Кбит/сек
Каналы : 2 канала
Channel layout : L R
Частота : 44,1 КГц
Частота кадров : 43,066 кадра/сек (1024 SPF)
Метод сжатия : С потерями
Размер потока : 29,7 Мбайт (2%)
Default : Да
Alternate group : 1



Внимание! AdBlock блокирует показ скриншотов, все вопросы к разработчикам )))
Трекер:  [ 29-Авг-2020 21:33 ]

  

Скачать .torrent

Размер .torrent файла 22 KB


Размер: 4.33 GB
Хэш (hash) релиза: be0cfeba178961a5adaa431a230eb29e32b165d1

Еще никто не оставлял запись к записи скачать торрент [Chaturbate.com] Moonshow . Будь первым!

!Обратная связь