Tsukasa Aoi, Saki Okuda, Minami Kojima, Aika Yumeno, Moe Amatsuka,Yua Mikami, Arina Hashimoto, Miharu Usa, Yura Kano, Miru Sakamichi - 31 Super-Class Beautiful Ladies Are Managing Your Masturbation Schedule For 31 Days! An S1 Masturbation-Of-The-Day UnionPeer.org HD

2015, 2014 UnionPeer.org

.

19.83 GB   |    :  2 9    |    .torrent :  127    |   

1  
   
 

Galfimbul

avatar Galfimbul



31 Super-Class Beautiful Ladies Are Managing Your Masturbation Schedule For 31 Days! An S1 Masturbation-Of-The-Day Ultra Deluxe Sex Calendar 8 Hours
S 級美女 31 人手淫時程表管理 31 天 ! Eswan 每日更換超豪華日曆 8 小時。


C: : Big Tits, Beautiful Girl, Compilation : 08:02:14 : :
: OFJE-263 : S1 NO.1 STYLE :
: Tsukasa Aoi, Saki Okuda, Minami Kojima, Aika Yumeno, Moe Amatsuka,Yua Mikami, Arina Hashimoto, Miharu Usa, Yura Kano, Miru Sakamichi
HD : 1080p : HDRip : MP4 : AVC, 1920 pixels x 1080 pixels, 29.960 FPS, 5744 kb/s
: AAC, 48.0 kHz, 48.0 kHz, 256 kb/s

General
Complete name : E:\po\OFJE-263\OFJE-263-1.mp4
Format : MPEG-4
Format profile : Base Media
Codec ID : isom (isom/iso2/avc1/mp41)
File size : 9.92 GiB
Duration : 3 h 59 min
Overall bit rate mode : Variable
Overall bit rate : 5 935 kb/s
Writing application : Lavf58.12.100

Video
ID : 1
Format : AVC
Format/Info : Advanced Video Codec
Format profile : [email protected]
Format settings : CABAC / 3 Ref Frames
Format settings, CABAC : Yes
Format settings, Reference : 3 frames
Codec ID : avc1
Codec ID/Info : Advanced Video Coding
Duration : 3 h 59 min
Bit rate : 5 744 kb/s
Width : 1 920 pixels
Height : 1 080 pixels
Display aspect ratio : 16:9
Frame rate mode : Variable
Frame rate : 29.970 (29970/1000) FPS
Minimum frame rate : 29.960 FPS
Maximum frame rate : 29.970 FPS
Color space : YUV
Chroma subsampling : 4:2:0
Bit depth : 8 bits
Scan type : Progressive
Bits/(Pixel*Frame) : 0.092
Stream size : 9.48 GiB (96%)
Writing library : x264 core 157 r2945 72db437
Encoding settings : cabac=1 / ref=3 / deblock=1:1:0 / analyse=0x1:0x131 / me=hex / subme=7 / psy=1 / psy_rd=0.50:0.00 / mixed_ref=1 / me_range=16 / chroma_me=1 / trellis=1 / 8x8dct=0 / cqm=0 / deadzone=21,11 / fast_pskip=0 / chroma_qp_offset=-2 / threads=12 / lookahead_threads=2 / sliced_threads=0 / nr=0 / decimate=1 / interlaced=0 / bluray_compat=0 / constrained_intra=0 / bframes=3 / b_pyramid=0 / b_adapt=1 / b_bias=0 / direct=1 / weightb=1 / open_gop=0 / weightp=2 / keyint=infinite / keyint_min=60 / scenecut=0 / intra_refresh=0 / rc_lookahead=40 / rc=cbr / mbtree=1 / bitrate=5744 / ratetol=1.0 / qcomp=0.60 / qpmin=10 / qpmax=69 / qpstep=4 / vbv_maxrate=5744 / vbv_bufsize=12000 / nal_hrd=none / filler=0 / ip_ratio=1.41 / aq=1:1.00
Color range : Limited
Color primaries : BT.709
Transfer characteristics : BT.709
Matrix coefficients : BT.709
Codec configuration box : avcC

Audio
ID : 2
Format : AAC LC
Format/Info : Advanced Audio Codec Low Complexity
Codec ID : mp4a-40-2
Duration : 3 h 59 min
Bit rate mode : Variable
Bit rate : 256 kb/s
Maximum bit rate : 259 kb/s
Channel(s) : 2 channels
Channel layout : L R
Sampling rate : 48.0 kHz
Frame rate : 46.875 FPS (1024 SPF)
Compression mode : Lossy
Stream size : 438 MiB (4%)
Default : Yes
Alternate group : 1
General
Complete name : E:\po\OFJE-263\OFJE-263-2.mp4
Format : MPEG-4
Format profile : Base Media
Codec ID : isom (isom/iso2/avc1/mp41)
File size : 9.90 GiB
Duration : 3 h 58 min
Overall bit rate mode : Variable
Overall bit rate : 5 945 kb/s
Writing application : Lavf58.12.100

Video
ID : 1
Format : AVC
Format/Info : Advanced Video Codec
Format profile : [email protected]
Format settings : CABAC / 3 Ref Frames
Format settings, CABAC : Yes
Format settings, Reference : 3 frames
Codec ID : avc1
Codec ID/Info : Advanced Video Coding
Duration : 3 h 58 min
Bit rate : 5 744 kb/s
Width : 1 920 pixels
Height : 1 080 pixels
Display aspect ratio : 16:9
Frame rate mode : Variable
Frame rate : 29.970 (29970/1000) FPS
Minimum frame rate : 29.960 FPS
Maximum frame rate : 29.970 FPS
Color space : YUV
Chroma subsampling : 4:2:0
Bit depth : 8 bits
Scan type : Progressive
Bits/(Pixel*Frame) : 0.092
Stream size : 9.46 GiB (96%)
Writing library : x264 core 157 r2945 72db437
Encoding settings : cabac=1 / ref=3 / deblock=1:1:0 / analyse=0x1:0x131 / me=hex / subme=7 / psy=1 / psy_rd=0.50:0.00 / mixed_ref=1 / me_range=16 / chroma_me=1 / trellis=1 / 8x8dct=0 / cqm=0 / deadzone=21,11 / fast_pskip=0 / chroma_qp_offset=-2 / threads=12 / lookahead_threads=2 / sliced_threads=0 / nr=0 / decimate=1 / interlaced=0 / bluray_compat=0 / constrained_intra=0 / bframes=3 / b_pyramid=0 / b_adapt=1 / b_bias=0 / direct=1 / weightb=1 / open_gop=0 / weightp=2 / keyint=infinite / keyint_min=60 / scenecut=0 / intra_refresh=0 / rc_lookahead=40 / rc=cbr / mbtree=1 / bitrate=5744 / ratetol=1.0 / qcomp=0.60 / qpmin=10 / qpmax=69 / qpstep=4 / vbv_maxrate=5744 / vbv_bufsize=12000 / nal_hrd=none / filler=0 / ip_ratio=1.41 / aq=1:1.00
Color range : Limited
Color primaries : BT.709
Transfer characteristics : BT.709
Matrix coefficients : BT.709
Codec configuration box : avcC

Audio
ID : 2
Format : AAC LC
Format/Info : Advanced Audio Codec Low Complexity
Codec ID : mp4a-40-2
Duration : 3 h 58 min
Bit rate mode : Variable
Bit rate : 256 kb/s
Maximum bit rate : 259 kb/s
Channel(s) : 2 channels
Channel layout : L R
Sampling rate : 48.0 kHz
Frame rate : 46.875 FPS (1024 SPF)
Compression mode : Lossy
Stream size : 437 MiB (4%)
Default : Yes
Alternate group : 1


! AdBlock , )))
 ·  , , FAQ-
:  [ 03--2020 16:10 ]

  

.torrent

.torrent 99 KB


: 19.83 GB
(hash) : fe84a9f8141a1526e02838577929a7fd5dce0b0a
··
...

Tsukasa Aoi, Saki Okuda, Minami Kojima, Aika Yumeno, Moe Amatsuka,Yua Mikami, Arina Hashimoto, Miharu Usa, Yura Kano, Miru Sakamichi - 31 Super-Class Beautiful Ladies Are Managing Your Masturbation Schedule For 31 Days! An S1 Masturbation-Of-The-Day . !

!