Скачать через торрент Трое из Простоквашино Фильм бесплатно в хорошем качестве torrent

Скачивайте на UnionPeer.org фильмы через торрент без регистрации. Новинки кино в хорошем качестве через торрент. На UnionPeer.org можно скачать через торрент фильмы 2014 и 2015 годов. Самые новые фильмы.

Скачать торрент Трое из Простоквашино бесплатно через .torrent фильм мультфильм сериал

Статистика раздачи
Размер:  1022 MB   |    Зарегистрирован:  7 лет 7 месяцев   |    .torrent скачан:  247 раз   |   
Раздают:  1  
   
загрузка...
 
Автор Сообщение

L


Трое из Простоквашино
Год выпуска: 1978-1984 гг.
Страна: СССР
Жанр: Мультфильм
Продолжительность: 00:51:26
Режиссер: Владимир Попов

Описание:
Трилогия о приключениях Дяди Федора (а также его родителей), кота Матроскина, пса Шарика и почтальона Печкина
1. Трое из Простоквашино (1978 г.) — 0:17:46
2. Каникулы в Простоквашино (1980 г.) — 00:17:57
3. Зима в Простоквашино (1984 г.) — 00:15:43

Релиз:

Качество: DVDRip-AVC
Формат: MKV
Видео: 720x576 (4:3) @ 768x576, 25.000 fps, AVC, ~2166-2321 Kbps, 0.209-0.224 bits/pixel
Аудио: Russian, 48.0 KHz, AC3, 6 ch, 448 Kbps
Субтитры: отсутствуют
General
Unique ID : 181310410093357458686966202616715736884 (0x88671D63B7401307A46638AC4B9CF734)
Complete name : C:\torrent\Owner\Prosto\01. Трое из Простоквашино.mkv
Format : Matroska
Format version : Version 2
File size : 359 MiB
Duration : 17mn 46s
Overall bit rate : 2 825 Kbps
Encoded date : UTC 2011-12-11 07:16:54
Writing application : mkvmerge v5.0.1 ('Es ist Sommer') built on Oct 9 2011 11:55:43
Writing library : libebml v1.2.2 + libmatroska v1.3.0

Video
ID : 1
Format : AVC
Format/Info : Advanced Video Codec
Format profile : High@L4.0
Format settings, CABAC : Yes
Format settings, ReFrames : 16 frames
Codec ID : V_MPEG4/ISO/AVC
Duration : 17mn 46s
Bit rate : 2 321 Kbps
Width : 720 pixels
Height : 576 pixels
Display aspect ratio : 4:3
Frame rate : 25.000 fps
Standard : PAL
Color space : YUV
Chroma subsampling : 4:2:0
Bit depth : 8 bits
Scan type : Progressive
Bits/(Pixel*Frame) : 0.224
Stream size : 295 MiB (82%)
Title : Nyc-2008 / http://рутраскер / RG Multfilmy
Writing library : x264 core 120 r2120kMod 0c7dab9
Encoding settings : cabac=1 / ref=16 / deblock=1:0:0 / analyse=0x3:0x113 / me=umh / subme=11 / psy=1 / fade_compensate=0.00 / psy_rd=1.00:0.10 / mixed_ref=1 / me_range=24 / chroma_me=1 / trellis=2 / 8x8dct=1 / cqm=0 / deadzone=21,11 / fast_pskip=0 / chroma_qp_offset=-3 / threads=6 / sliced_threads=0 / nr=0 / decimate=1 / interlaced=0 / bluray_compat=0 / constrained_intra=0 / bframes=8 / b_pyramid=2 / b_adapt=2 / b_bias=0 / direct=1 / weightb=1 / open_gop=0 / weightp=2 / keyint=250 / keyint_min=25 / scenecut=40 / intra_refresh=0 / rc_lookahead=60 / rc=crf / mbtree=1 / crf=18.9900 / qcomp=0.60 / qpmin=0 / qpmax=69 / qpstep=4 / ip_ratio=1.40 / aq=2:1.00
Language : Russian

Audio
ID : 2
Format : AC-3
Format/Info : Audio Coding 3
Mode extension : CM (complete main)
Codec ID : A_AC3
Duration : 17mn 46s
Bit rate mode : Constant
Bit rate : 448 Kbps
Channel(s) : 6 channels
Channel positions : Front: L C R, Side: L R, LFE
Sampling rate : 48.0 KHz
Bit depth : 16 bits
Compression mode : Lossy
Stream size : 56.9 MiB (16%)
Language : Russian
General
Unique ID : 210170392704849716605012520184114781723 (0x9E1D5863D63BF7B199FFCD0EB6831E1B)
Complete name : C:\torrent\Owner\Prosto\02. Каникулы в Простоквашино.mkv
Format : Matroska
Format version : Version 2
File size : 363 MiB
Duration : 17mn 57s
Overall bit rate : 2 826 Kbps
Encoded date : UTC 2011-12-11 11:44:51
Writing application : mkvmerge v5.0.1 ('Es ist Sommer') built on Oct 9 2011 11:55:43
Writing library : libebml v1.2.2 + libmatroska v1.3.0

Video
ID : 1
Format : AVC
Format/Info : Advanced Video Codec
Format profile : High@L4.0
Format settings, CABAC : Yes
Format settings, ReFrames : 16 frames
Codec ID : V_MPEG4/ISO/AVC
Duration : 17mn 57s
Bit rate : 2 321 Kbps
Width : 720 pixels
Height : 576 pixels
Display aspect ratio : 4:3
Frame rate : 25.000 fps
Standard : PAL
Color space : YUV
Chroma subsampling : 4:2:0
Bit depth : 8 bits
Scan type : Progressive
Bits/(Pixel*Frame) : 0.224
Stream size : 298 MiB (82%)
Title : Nyc-2008 / http://рутраскер / RG Multfilmy
Writing library : x264 core 120 r2120kMod 0c7dab9
Encoding settings : cabac=1 / ref=16 / deblock=1:0:0 / analyse=0x3:0x113 / me=umh / subme=11 / psy=1 / fade_compensate=0.00 / psy_rd=1.00:0.10 / mixed_ref=1 / me_range=24 / chroma_me=1 / trellis=2 / 8x8dct=1 / cqm=0 / deadzone=21,11 / fast_pskip=0 / chroma_qp_offset=-3 / threads=6 / sliced_threads=0 / nr=0 / decimate=1 / interlaced=0 / bluray_compat=0 / constrained_intra=0 / bframes=8 / b_pyramid=2 / b_adapt=2 / b_bias=0 / direct=1 / weightb=1 / open_gop=0 / weightp=2 / keyint=250 / keyint_min=25 / scenecut=40 / intra_refresh=0 / rc_lookahead=60 / rc=crf / mbtree=1 / crf=18.4900 / qcomp=0.60 / qpmin=0 / qpmax=69 / qpstep=4 / ip_ratio=1.40 / aq=2:1.00
Language : Russian

Audio
ID : 2
Format : AC-3
Format/Info : Audio Coding 3
Mode extension : CM (complete main)
Codec ID : A_AC3
Duration : 17mn 57s
Bit rate mode : Constant
Bit rate : 448 Kbps
Channel(s) : 6 channels
Channel positions : Front: L C R, Side: L R, LFE
Sampling rate : 48.0 KHz
Bit depth : 16 bits
Compression mode : Lossy
Stream size : 57.5 MiB (16%)
Language : Russian
General
Unique ID : 221093380155579881571107243415609204048 (0xA6550940205FFAC7B4D23777978EDD50)
Complete name : C:\torrent\Owner\Prosto\03. Зима в Простоквашино.mkv
Format : Matroska
Format version : Version 2
File size : 300 MiB
Duration : 15mn 43s
Overall bit rate : 2 667 Kbps
Encoded date : UTC 2011-12-11 14:26:07
Writing application : mkvmerge v5.0.1 ('Es ist Sommer') built on Oct 9 2011 11:55:43
Writing library : libebml v1.2.2 + libmatroska v1.3.0

Video
ID : 1
Format : AVC
Format/Info : Advanced Video Codec
Format profile : High@L4.0
Format settings, CABAC : Yes
Format settings, ReFrames : 16 frames
Codec ID : V_MPEG4/ISO/AVC
Duration : 15mn 43s
Bit rate : 2 166 Kbps
Width : 720 pixels
Height : 576 pixels
Display aspect ratio : 4:3
Frame rate : 25.000 fps
Standard : PAL
Color space : YUV
Chroma subsampling : 4:2:0
Bit depth : 8 bits
Scan type : Progressive
Bits/(Pixel*Frame) : 0.209
Stream size : 244 MiB (81%)
Title : Nyc-2008 / http://рутраскер / RG Multfilmy
Writing library : x264 core 120 r2120kMod 0c7dab9
Encoding settings : cabac=1 / ref=16 / deblock=1:0:0 / analyse=0x3:0x113 / me=umh / subme=11 / psy=1 / fade_compensate=0.00 / psy_rd=1.00:0.10 / mixed_ref=1 / me_range=24 / chroma_me=1 / trellis=2 / 8x8dct=1 / cqm=0 / deadzone=21,11 / fast_pskip=0 / chroma_qp_offset=-3 / threads=6 / sliced_threads=0 / nr=0 / decimate=1 / interlaced=0 / bluray_compat=0 / constrained_intra=0 / bframes=8 / b_pyramid=2 / b_adapt=2 / b_bias=0 / direct=1 / weightb=1 / open_gop=0 / weightp=2 / keyint=250 / keyint_min=25 / scenecut=40 / intra_refresh=0 / rc_lookahead=60 / rc=crf / mbtree=1 / crf=18.0000 / qcomp=0.60 / qpmin=0 / qpmax=69 / qpstep=4 / ip_ratio=1.40 / aq=2:1.00
Language : Russian

Audio
ID : 2
Format : AC-3
Format/Info : Audio Coding 3
Mode extension : CM (complete main)
Codec ID : A_AC3
Duration : 15mn 43s
Bit rate mode : Constant
Bit rate : 448 Kbps
Channel(s) : 6 channels
Channel positions : Front: L C R, Side: L R, LFE
Sampling rate : 48.0 KHz
Bit depth : 16 bits
Compression mode : Lossy
Stream size : 50.4 MiB (17%)
Language : Russian


Трекер:  [ 19-Дек-2011 20:46 ]

  

Скачать .torrent

Размер .torrent файла 20 KB


Размер: 1022 MB
Хэш (hash) релиза: 31d1556adb63f3e1d7bb35f67e0345614ff65006
Подписка на обновления:

Торренты, похожие на Трое из Простоквашино скачать торрент

Форум Название Автор Размер S L Добавлен
Мультфильмы до 2016 ·· Трое из Простоквашино (Трое из Простоквашино; Каникулы в Простоквашино; Зима в Простоквашино; Бобик в гостях у Барбоса; Приключения Васи Куролесова) (Владимир Попов) [1977-1984 г.г, мультфильмы, Blu-ray disc 1080i] sebladec 2165108572720.16 GB 0 0 1299147537

13:18

3-Мар-11

Мультфильмы до 2016 ·· Трое из Простоквашино (Трое из Простоквашино; Каникулы в Простоквашино; Зима в Простоквашино; Бобик в гостях у Барбоса; Приключения Васи Куролесова) (Владимир Попов) [1977-1984 г.г., мультфильмы, DVD5] Крупный план, реставрация sebladec 43763226844.08 GB 0 0 1293110606

16:23

23-Дек-10

Мультфильмы до 2016 ·· Трое из Простоквашино (Трое из Простоквашино, Каникулы в Простоквашино, Зима в Простоквашино, Бобик в гостях у Барбоса, Приключения Васи Куролесова ) (Владимир Попов) [1977-1984 гг., Мультфильм, анимация, DVDRip] Крупный план, реставрация sebladec 17281351681.61 GB 0 0 1293110311

16:18

23-Дек-10

Мультфильмы до 2016 ·· Трое из Простоквашино (Владимир Попов) [1977-1984, мультфильм, короткометражка, семейный, BDRip 1080p] Galfimbul 28184336352.62 GB 0 0 1380308458

22:00

27-Сен-13

Мультфильмы до 2016 ·· Трое из Простоквашино (Владимир Попов) [1977-1984, мультфильм, короткометражка, семейный, BDRip 720p] Galfimbul 15646958811.46 GB 0 0 1380308427

22:00

27-Сен-13

Мультфильмы до 2016 ·· Трое из Простоквашино (Владимир Попов) [1977-1984, мультфильм, короткометражка, семейный, BDRip-AVC] Galfimbul 781186782745 MB 0 0 1380268615

10:56

27-Сен-13

Мультфильмы до 2016 ·· Трое из Простоквашино (Владимир Попов) [1977-1984, мультфильм, короткометражка, семейный, BDRip] Galfimbul 779005952743 MB 0 0 1380268574

10:56

27-Сен-13

Видео для Консолей ·· [MULT4PSP] Трое из Простоквашино (Владимир Попов) [1977-1984 г., мультфильм, короткометражка, семейный., BDRip] Galfimbul 307731322293 MB 0 0 1339427040

18:04

11-Июн-12

Мультфильмы до 2016 ·· Трое из Простоквашино. Сборник мультфильмов (Владимир Попов) [1977-1984, Мультфильм, семейный, комедия, BDRip, 720p] sebladec 29279725752.73 GB 0 0 1299147587

13:19

3-Мар-11

Еще никто не оставлял запись к записи скачать торрент Трое из Простоквашино . Будь первым!

!Обратная связь