Скачать порно через торрент [CockSureMen.com] Reyn Story Barebacks Ryan Cage UnionPeer.org бесплатно онлайн HD качество

Скачать новое порно 2015, 2014 новинки через торрент UnionPeer.org

Порно торрент бесплатно ЮнионПир.орг

Статистика раздачи
Размер:  917 MB   |    Зарегистрирован:  1 год 9 месяцев   |    .torrent скачан:  43 раза   |   

Пиры будут получены при скачивании

 

Скачать [CockSureMen.com] Reyn Story Barebacks Ryan Cage (Ondra Radni, ?) [2014 г., Anal Sex, Bareback, Beefy, Blowjob, Cumshots, Masturbation, Muscles, Spanking, Tattoos, Uncut., 720p] через torrent

 
 
Автор Сообщение

Galfimbul

avatar Galfimbul




[CockSureMen.com] Reyn Story Barebacks Ryan Cage


Имя актера: Reyn Story (aka Ondra Radni/WH, Jay Fisco, Igor (gwg), Reggie Klipper(BoyFun), Ryan Cage (aka ?)
Название ролика: Reyn Story Barebacks Ryan Cage
Подсайт и сайт: CockSureMen.com

Год производства: 2014 г.
Жанр: Anal Sex, Bareback, Beefy, Blowjob, Cumshots, Masturbation, Muscles, Spanking, Tattoos, Uncut.
Продолжительность: 00:25:40

Описание:
Sexy jocks Reyn Story and Ryan Cage kiss and feel each others muscular bodies. Reyn pulls off Ryan’s shorts to suck his beefy cock. Ryan removes Reyn’s shorts and sucks his meat. They stand up and take off their shirts. Reyn sucks on Ryan’s nipples a few times before Ryan bends over on the couch exposing his ass. At that moment Reyn spits and fingers Ryan’s ass. Reyn sticks his raw cock in Ryan’s ass and barebacks him doggystyle. Ryan moans while his ass gets screwed. Ryan lays down on the couch and muscle top Reyn lifts Ryan’s leg and intensely plows him bareback. Ryan strokes his cock while getting fucked raw. Reyn pulls out and sucks Ryan one more time. Reyn sits on the corner of the couch, Ryan squats on his raw cock while he is getting his cock played by Reyn. Ryan shoots his cum while still getting fucked. Reyn shoots his load onto Ryan Cage ass cheeks. Reyn Story sticks his wet cock back in and barebacks Ryan one more time. They finish the scene kissing passionately.
Доп. информация: официальный релиз - 11.09.2014



Тип HD видео: 720p
Формат видео: MP4
Видео кодек: H.264/AVC
Аудио кодек: AAC
Видео: AVC, 960x720 (16:9), 29.970 fps, 4 883 Kbps (0.236 bit/pixel)
Аудио: AAC LC, 44.1 KHz, 2 ch, 105 Kbps
General
Complete name : [CockSureMen] Reyn Story Barebacks Ryan Cage - 720p.mp4
Format : MPEG-4
Format profile : Apple TV
Codec ID : M4VH
File size : 917 MiB
Duration : 25mn 40s
Overall bit rate : 4 993 Kbps
Encoded date : UTC 2014-09-08 20:40:47
Tagged date : UTC 2014-09-08 20:41:22

Video
ID : 1
Format : AVC
Format/Info : Advanced Video Codec
Format profile : Main@L3.1
Format settings, CABAC : No
Format settings, ReFrames : 2 frames
Codec ID : avc1
Codec ID/Info : Advanced Video Coding
Duration : 25mn 40s
Bit rate : 4 883 Kbps
Width : 960 pixels
Height : 720 pixels
Display aspect ratio : 16:9
Frame rate mode : Constant
Frame rate : 29.970 fps
Color space : YUV
Chroma subsampling : 4:2:0
Bit depth : 8 bits
Scan type : Progressive
Bits/(Pixel*Frame) : 0.236
Stream size : 897 MiB (98%)
Language : English
Encoded date : UTC 2014-09-08 20:40:45
Tagged date : UTC 2014-09-08 20:41:22
Color primaries : BT.709
Transfer characteristics : BT.709
Matrix coefficients : BT.709

Audio
ID : 2
Format : AAC
Format/Info : Advanced Audio Codec
Format profile : LC
Codec ID : 40
Duration : 25mn 40s
Bit rate mode : Constant
Bit rate : 105 Kbps
Nominal bit rate : 128 Kbps
Channel(s) : 2 channels
Channel positions : Front: L R
Sampling rate : 44.1 KHz
Compression mode : Lossy
Stream size : 19.2 MiB (2%)
Language : English
Encoded date : UTC 2014-09-08 20:40:46
Tagged date : UTC 2014-09-08 20:41:22



Внимание! AdBlock блокирует показ скриншотов, все вопросы к разработчикам )))
Трекер:  [ 12-Окт-2020 02:03 ]

  

Скачать .torrent

Размер .torrent файла 18 KB


Размер: 917 MB
Хэш (hash) релиза: 237e9df92e626c437ab7c321a92e0a7c0ff8c57a

Еще никто не оставлял запись к записи скачать торрент [CockSureMen.com] Reyn Story Barebacks Ryan Cage . Будь первым!

!Обратная связь