Ane Koi: Suki Kirai Daisuki. Sizzling Siblings UnionPeer.org HD

2015, 2014 UnionPeer.org

.

2.95 GB   |    :  3 4    |    .torrent :  512    |   

   
 

Galfimbul

avatar Galfimbul


Ane Koi: Suki Kirai Daisuki.
姉恋 スキ・キライ・ダイスキ.
Sizzling Siblings


: 2013
: incest, romance, virgin, oral, big breast, creampie
: ep. 1-2 of 2
: 2*25mn
:

: : AniSTAR [Zendos & Sati Akura]
:
: ( )
: Russian, English, Chinese, Hungarian, Korean

: 桜庭天寿
: Yuzuki N`
: Pashmina, MS Pictures

: "Yuzuki N dash". ...

: BDRip 720p [8 Bit Ver!]
: mkv
: AVC, 1280x720 (16:9), 23.976 fps, 5 900 kb/s (0.267 bit/pixel)
#1: FLAC, 48.0 kHz, 2 ch, 515 kb/s, VBR (Russian)
#2: FLAC, 48.0 kHz, 2 ch, 1 009 kb/s, VBR (English)
#3: FLAC, 48.0 kHz, 2 ch, 802 kb/s, VBR (Japanese)
General
Unique ID : 178038873069095232872471887424574623920 (0x85F10A292E58EFE0CBB8576A405E90B0)
Complete name : D:\\[Deadmau- RAWS] Ane.Koi.Suki.Kirai.Daisuki.2013.RUS.ENG.JAP.BDRip.720p.UNCEN.Deadmauvlad.Ep.02.END.mkv
Format : Matroska
Format version : Version 4
File size : 1.43 GiB
Duration : 24 min 51 s
Overall bit rate mode : Variable
Overall bit rate : 8 228 kb/s
Movie name : [Deadmau- RAWS] Ane.Koi.Suki.Kirai.Daisuki.2013.RUS.ENG.JAP.BDRip.720p.Deadmauvlad
Encoded date : UTC 2020-10-19 13:24:17
Writing application : mkvmerge v49.0.0 (''Sick Of Losing Soulmates'') 32-bit
Writing library : libebml v1.4.0 + libmatroska v1.6.1

Video
ID : 1
Format : AVC
Format/Info : Advanced Video Codec
Format profile : [email protected]
Format settings : CABAC / 7 Ref Frames
Format settings, CABAC : Yes
Format settings, ReFrames : 7 frames
Codec ID : V_MPEG4/ISO/AVC
Duration : 24 min 51 s
Bit rate : 5 900 kb/s
Width : 1 280 pixels
Height : 720 pixels
Display aspect ratio : 16:9
Frame rate mode : Constant
Frame rate : 23.976 (24000/1001) FPS
Color space : YUV
Chroma subsampling : 4:2:0
Bit depth : 8 bits
Scan type : Progressive
Bits/(Pixel*Frame) : 0.267
Stream size : 1.02 GiB (72%)
Title : Encoder by Deadmauvlad
Writing library : x264 core 157 r2969 d4099dd
Encoding settings : cabac=1 / ref=7 / deblock=1:-1:-2 / analyse=0x3:0x113 / me=umh / subme=10 / psy=1 / psy_rd=0.75:0.00 / mixed_ref=0 / me_range=38 / chroma_me=1 / trellis=2 / 8x8dct=1 / cqm=0 / deadzone=21,11 / fast_pskip=1 / chroma_qp_offset=-2 / threads=16 / lookahead_threads=4 / sliced_threads=0 / nr=0 / decimate=1 / interlaced=0 / bluray_compat=0 / constrained_intra=0 / bframes=16 / b_pyramid=2 / b_adapt=2 / b_bias=0 / direct=1 / weightb=1 / open_gop=0 / weightp=2 / keyint=240 / keyint_min=24 / scenecut=40 / intra_refresh=0 / rc=2pass / mbtree=0 / bitrate=5900 / ratetol=1.0 / qcomp=1.00 / qpmin=6 / qpmax=69 / qpstep=4 / cplxblur=20.0 / qblur=0.5 / ip_ratio=1.50 / pb_ratio=1.50 / aq=1:1.50
Language : English
Default : Yes
Forced : No

Audio #1
ID : 2
Format : FLAC
Format/Info : Free Lossless Audio Codec
Codec ID : A_FLAC
Duration : 24 min 51 s
Bit rate mode : Variable
Bit rate : 515 kb/s
Channel(s) : 2 channels
Channel layout : L R
Sampling rate : 48.0 kHz
Frame rate : 11.719 FPS (4096 SPF)
Bit depth : 16 bits
Compression mode : Lossless
Stream size : 91.6 MiB (6%)
Title : AniSTAR / : [Zendos & Sati Akura] [ Deadmauvlad]
Writing library : libFLAC 20080709 (UTC 2008-07-09)
Language : Russian
Default : No
Forced : No

Audio #2
ID : 3
Format : FLAC
Format/Info : Free Lossless Audio Codec
Codec ID : A_FLAC
Duration : 24 min 51 s
Bit rate mode : Variable
Bit rate : 1 009 kb/s
Channel(s) : 2 channels
Channel layout : L R
Sampling rate : 48.0 kHz
Frame rate : 10.417 FPS (4608 SPF)
Bit depth : 24 bits
Compression mode : Lossless
Stream size : 179 MiB (12%)
Title : DUBBED
Writing library : Lavf58.33.100
Language : English
Default : No
Forced : No

Audio #3
ID : 4
Format : FLAC
Format/Info : Free Lossless Audio Codec
Codec ID : A_FLAC
Duration : 24 min 51 s
Bit rate mode : Variable
Bit rate : 802 kb/s
Channel(s) : 2 channels
Channel layout : L R
Sampling rate : 48.0 kHz
Frame rate : 10.417 FPS (4608 SPF)
Bit depth : 24 bits
Compression mode : Lossless
Stream size : 143 MiB (10%)
Writing library : Lavf58.33.100
Language : Japanese
Default : No
Forced : No

Text #1
ID : 5
Format : ASS
Codec ID : S_TEXT/ASS
Codec ID/Info : Advanced Sub Station Alpha
Duration : 22 min 11 s
Bit rate : 92 b/s
Count of elements : 215
Compression mode : Lossless
Stream size : 15.0 KiB (0%)
Language : Russian
Default : No
Forced : No

Text #2
ID : 6
Format : ASS
Codec ID : S_TEXT/ASS
Codec ID/Info : Advanced Sub Station Alpha
Duration : 24 min 24 s
Bit rate : 95 b/s
Count of elements : 290
Compression mode : Lossless
Stream size : 17.0 KiB (0%)
Language : English
Default : No
Forced : No

Text #3
ID : 7
Format : ASS
Codec ID : S_TEXT/ASS
Codec ID/Info : Advanced Sub Station Alpha
Duration : 22 min 10 s
Bit rate : 76 b/s
Count of elements : 217
Compression mode : Lossless
Stream size : 12.5 KiB (0%)
Language : Chinese
Default : No
Forced : No

Text #4
ID : 8
Format : ASS
Codec ID : S_TEXT/ASS
Codec ID/Info : Advanced Sub Station Alpha
Duration : 22 min 11 s
Bit rate : 63 b/s
Count of elements : 242
Compression mode : Lossless
Stream size : 10.4 KiB (0%)
Language : Hungarian
Default : No
Forced : No

Text #5
ID : 9
Format : ASS
Codec ID : S_TEXT/ASS
Codec ID/Info : Advanced Sub Station Alpha
Duration : 22 min 11 s
Bit rate : 77 b/s
Count of elements : 274
Compression mode : Lossless
Stream size : 12.6 KiB (0%)
Language : Korean
Default : No
Forced : No
by Deadmauvlad

! AdBlock , )))
 ·  , , FAQ-
:  [ 19--2020 17:03 ]

  

.torrent

.torrent 4 KB


: 2.95 GB
(hash) : ee13548358bd9326639119e1cbdd1b6852c8a6a1
··
...

Ane Koi: Suki Kirai Daisuki. Sizzling Siblings . !

!