Скачать порно через торрент Makoto-chan Макото-чан UnionPeer.org бесплатно онлайн HD качество

Скачать новое порно 2015, 2014 новинки через торрент UnionPeer.org

Порно торрент бесплатно ЮнионПир.орг

Статистика раздачи
Размер:  9.09 GB   |    Зарегистрирован:  3 года 3 месяца   |    .torrent скачан:  80 раз   |   

Пиры будут получены при скачивании

 

Скачать Makoto-chan / Макото-чан (Shibayama Tsutomu, Fujioka Yutaka) (ep. 1 of 1) [ecchi] [1980, comedy, BDRip] [jap / eng] [1080p] через torrent

 
 
Автор Сообщение

Galfimbul

avatar Galfimbul


Makoto-chan
まことちゃん
Макото-чан


Год выпуска: 1980
Жанр: comedy
Серии: ep. 1 of 1
Продолжительность: 1h 24mn
Цензура: Этти - легкая эротика

Озвучка: Японская оригинальная
Субтитры: Английские [Orphan] встроенные отключаемые ASS

Режиссер: Shibayama Tsutomu
Автор оригинала: Umezu Kazuo
Студия: Fujioka Yutaka

Описание: Много писек. Пошлые шутки. Остальное скрыто под завесом тайны.

anidb

Качество видео: BDrip [Orphan]
Формат видео: MKV
Видео: AVC, 1920-1036, 1.85:1, 23.976 fps, 14.4 mbps
Аудио: jpn, AC-3, Stereo, 48.0 KHz, 448 Kbps
General
Unique ID : 201033070615482225564777535764526828869 (0x973D8FA10A9AA7D788A632FFF1B88D45)
Complete name : Makoto-chan_[BDrip][Orphan][623AA297].mkv
Format : Matroska
Format version : Version 4
File size : 8.79 GiB
Duration : 1 h 24 min
Overall bit rate : 14.9 Mb/s
Movie name : [Orphan] Makoto-chan (BD 1080p)
Encoded date : UTC 2020-10-12 12:12:59
Writing application : mkvmerge v7.8.0 (''River Man'') 32bit built on Mar 27 2015 16:18:02
Writing library : libebml v1.3.1 + libmatroska v1.4.2
Attachments : 123Marker.ttf / 888_MRG.TTF / Ackident.ttf / AGENCYR.TTF / Alor-Condensed Normal.ttf / ARCENA.ttf / ArchitectsDaughter.ttf / arial.ttf / armwrestler.ttf / Arnold 2.1.ttf / Barthowheel Regular.ttf / BAUHS93.TTF / cac-moose.ttf / calibri.ttf / calibrib.ttf / CHINACAT.ttf / FOT Rodin Pro UB.ttf / FOT-ManyoSoshoStd-E(c).ttf / FOT-PopJoyStd-B(c).otf / FOT-RodinPro-EB(c).ttf / FOT-SeuratPro-DB(c).ttf / FOT-TsukuMinPro-H(c).ttf / Kozuka Mincho Pro H.ttf / led_display-7.ttf / Minecart LCD.ttf / MYRIADPRO-SEMIBOLD.OTF / MYRIADPRO-SEMIBOLDIT.OTF / seguisym.ttf

Video
ID : 1
Format : AVC
Format/Info : Advanced Video Codec
Format profile : High [email protected]
Format settings : CABAC / 16 Ref Frames
Format settings, CABAC : Yes
Format settings, Reference frames : 16 frames
Codec ID : V_MPEG4/ISO/AVC
Duration : 1 h 24 min
Bit rate : 14.4 Mb/s
Width : 1 920 pixels
Height : 1 036 pixels
Display aspect ratio : 1.85:1
Frame rate mode : Constant
Frame rate : 23.976 (24000/1001) FPS
Color space : YUV
Chroma subsampling : 4:2:0
Bit depth : 10 bits
Scan type : Progressive
Bits/(Pixel*Frame) : 0.302
Stream size : 8.51 GiB (97%)
Title : Video
Writing library : x264 core 148 r2638 7599210
Encoding settings : cabac=1 / ref=16 / deblock=1:-2:-2 / analyse=0x3:0x133 / me=umh / subme=10 / psy=1 / psy_rd=0.80:0.10 / mixed_ref=1 / me_range=48 / chroma_me=1 / trellis=2 / 8x8dct=1 / cqm=0 / deadzone=21,11 / fast_pskip=1 / chroma_qp_offset=-3 / threads=6 / lookahead_threads=1 / sliced_threads=0 / nr=0 / decimate=1 / interlaced=0 / bluray_compat=0 / constrained_intra=0 / bframes=16 / b_pyramid=2 / b_adapt=1 / b_bias=0 / direct=3 / weightb=1 / open_gop=0 / weightp=2 / keyint=230 / keyint_min=21 / scenecut=40 / intra_refresh=0 / rc_lookahead=40 / rc=crf / mbtree=1 / crf=16.0 / qcomp=0.60 / qpmin=0 / qpmax=81 / qpstep=4 / ip_ratio=1.40 / aq=3:0.60
Default : Yes
Forced : No

Audio
ID : 2
Format : AC-3
Format/Info : Audio Coding 3
Commercial name : Dolby Digital
Codec ID : A_AC3
Duration : 1 h 24 min
Bit rate mode : Constant
Bit rate : 448 kb/s
Channel(s) : 2 channels
Channel layout : L R
Sampling rate : 48.0 kHz
Frame rate : 31.250 FPS (1536 SPF)
Compression mode : Lossy
Stream size : 271 MiB (3%)
Title : Japanese audio
Language : Japanese
Service kind : Complete Main
Default : Yes
Forced : No

Text
ID : 3
Format : ASS
Codec ID : S_TEXT/ASS
Codec ID/Info : Advanced Sub Station Alpha
Duration : 1 h 24 min
Bit rate : 3 642 b/s
Count of elements : 16992
Compression mode : Lossless
Stream size : 2.20 MiB (0%)
Title : English subtitles
Language : English
Default : Yes
Forced : No

Menu
00:00:00.000 : en:Opening
00:01:40.098 : en:"My Little Lover"
00:18:37.090 : en:"A Present for Mother''s Day"
00:35:03.580 : en:"The Sparrow Egg"
00:51:15.550 : en:"The Lunch of Love"
01:07:32.520 : en:"The Best Child Award"
01:23:01.410 : en:Ending
От торрент иваниваныч – там лд-двд, здесь бдрип.


Внимание! AdBlock блокирует показ скриншотов, все вопросы к разработчикам )))
Трекер:  [ 02-Ноя-2020 03:53 ]

  

Скачать .torrent

Размер .torrent файла 47 KB


Размер: 9.09 GB
Хэш (hash) релиза: 824bf1eeb07b4efaa82e71e3a489f7742b3b261c

Торренты, похожие на Makoto-chan Макото-чан скачать торрент

Форум Название Автор Размер S L Добавлен
Хентай и Манга, Мультфильмы и Комиксы, Рисунки / Hentai & Manga, Cartoons & Comics, Artwork ·%· Makoto-chan / Макото-чан (Shibayama Tsutomu, Fujioka Yutaka) (ep. 1 of 1) [ecchi] [1980, comedy, LD - DVD custom] [jap] Galfimbul 49436917764.6 GB 0 0 1549489387

00:43

7-Фев-19

Еще никто не оставлял запись к записи скачать торрент Makoto-chan Макото-чан . Будь первым!

!Обратная связь