Скачать через торрент Сокол и Зимний Солдат The Falcon and The Winter Soldier Фильм бесплатно в хорошем качестве torrent

Скачивайте на UnionPeer.org фильмы через торрент без регистрации. Новинки кино в хорошем качестве через торрент. На UnionPeer.org можно скачать через торрент фильмы 2014 и 2015 годов. Самые новые фильмы.

Скачать торрент Сокол и Зимний Солдат The Falcon and The Winter Soldier бесплатно через .torrent фильм мультфильм сериал

Статистика раздачи
Размер:  13.31 GB   |    Зарегистрирован:  5 месяцев 14 дней   |    .torrent скачан:  0 раз   |   

Пиры будут получены при скачивании

   
 
Автор Сообщение

xrek

avatar xrek


Сокол и Зимний Солдат / The Falcon and The Winter Soldier

Год выпуска: 2021
Страна: США
Жанр: Боевик, фантастика, приключения, комедия, драма
Серия: 4 из 6
Сезон: 1
Продолжительность: ~50 минут
Перевод: Любительский (одноголосый) Борис VHSник Страхов
Режиссер: Кари Скогланд
В ролях: Энтони Маки, Себастиан Стэн, Уайатт Рассел, Эрин Келлиман, Десмонд Чайм, Даниэль Брюль, Эдеперо Одуйе, Эмили ВанКэмп

Описание:
Через шесть месяцев после «Скачка» Сэм Уилсон отдаёт щит Капитана Америки правительству США для музейной выставки. А недавно помилованный Баки Барнс посещает назначенные правительством приёмы психотерапевта. Тем временем в мире появляется новая террористическая организация "Разрушители флагов", которая считает, что во время Скачка жизнь на Земле была лучше. Для борьбы с ней правительство США назначают нового Капитана Америку, Джона Уокера. Тем временем Сэм и Баки начинают свое собственное расследования "Разрушителей флагов".

Качество: WEBRip 1080p
Формат: MP4
Данные видео: avc1, 1920х1080, 16:9, 24 fps, 9523 kb/s
Данные аудио: Русский, AAC, 48.0 kHz, 2 channels, 192 kb/s
1. New World Order
2. The Star-Spangled Man
3. Power Broker
4. The Whole World Is Watching
General
Complete name : D:\Download\Сокол и Зимний Солдат - сезон 1 - VHSник\Сокол и Зимний Солдат - сезон 1, серия 1 - VHSник.mp4
Format : MPEG-4
Format profile : Base Media / Version 2
Codec ID : mp42 (isom/mp42)
File size : 3.48 GiB
Duration : 51 min 16 s
Overall bit rate mode : Variable
Overall bit rate : 9 715 kb/s
Encoded date : UTC 2021-04-09 13:40:22
Tagged date : UTC 2021-04-09 13:40:22

Video
ID : 1
Format : AVC
Format/Info : Advanced Video Codec
Format profile : High@L4
Format settings, CABAC : Yes
Format settings, ReFrames : 1 frame
Format settings, GOP : M=1, N=30
Codec ID : avc1
Codec ID/Info : Advanced Video Coding
Duration : 51 min 16 s
Source duration : 51 min 16 s
Bit rate : 9 523 kb/s
Width : 1 920 pixels
Height : 1 080 pixels
Display aspect ratio : 16:9
Frame rate mode : Constant
Frame rate : 24.000 FPS
Color space : YUV
Chroma subsampling : 4:2:0
Bit depth : 8 bits
Scan type : Progressive
Bits/(Pixel*Frame) : 0.191
Stream size : 3.41 GiB (98%)
Source stream size : 3.41 GiB (98%)
Language : English
Encoded date : UTC 2021-04-09 13:40:23
Tagged date : UTC 2021-04-09 13:40:23
Color range : Limited

Audio
ID : 2
Format : AAC
Format/Info : Advanced Audio Codec
Format profile : LC
Codec ID : 40
Duration : 51 min 16 s
Bit rate mode : Variable
Bit rate : 192 kb/s
Maximum bit rate : 390 kb/s
Channel(s) : 2 channels
Channel positions : Front: L R
Sampling rate : 48.0 kHz
Frame rate : 46.875 FPS (1024 spf)
Compression mode : Lossy
Stream size : 69.5 MiB (2%)
Language : English
Encoded date : UTC 2021-04-09 13:40:23
Tagged date : UTC 2021-04-09 13:40:23


Внимание! AdBlock блокирует показ скриншотов, все вопросы к разработчикам )))
Трекер: Зарегистрирован  [ 13-Апр-2021 23:19 ]

скачать торрент Сокол и Зимний Солдат  The Falcon and The Winter Soldier

34 KB


Размер: 13.31 GB
Хэш (hash) релиза: fc8822bd9c83508add250dab22031b6629ce512e
Подписка на обновления:

Еще никто не оставлял запись к записи скачать торрент Сокол и Зимний Солдат The Falcon and The Winter Soldier . Будь первым!

!Обратная связь