Скачать через торрент Увиденное и услышанное Things Heard & Seen Фильм бесплатно в хорошем качестве torrent

Скачивайте на UnionPeer.org фильмы через торрент без регистрации. Новинки кино в хорошем качестве через торрент. На UnionPeer.org можно скачать через торрент фильмы 2014 и 2015 годов. Самые новые фильмы.

Скачать торрент Увиденное и услышанное Things Heard & Seen бесплатно через .torrent фильм мультфильм сериал

Статистика раздачи
Размер:  2.05 GB   |    Зарегистрирован:  4 месяца 28 дней   |    .torrent скачан:  151 раз   |   

Пиры будут получены при скачивании

 

Скачать Увиденное и услышанное / Things Heard & Seen (2021) WEB-DLRip-AVC от MediaBit | Netflix через torrent

 
 
Автор Сообщение

Galfimbul

avatar Galfimbul


[url=/tag/1/][/url]
[url=/tag/1/][/url]
[url=/tag/1/][/url]
Увиденное и услышанное / Things Heard & Seen
[url=/tag/1/][/url]
[url=/tag/1/][/url]
[url=/tag/1/][/url]
[url=/tag/1/][/url]
Информация о фильме: [url=/tag/1/][/url]
Увиденное и услышанное [url=/tag/1/][/url] / Things Heard & Seen [url=/tag/1/][/url]

Год выхода: 2021 [url=/tag/1/][/url]
Жанр: Ужасы, триллер, драма [url=/tag/1/][/url]
Режиссер: Шари Спрингер Берман, Роберт Пульчини [url=/tag/1/][/url]
В ролях: Ри Сихорн, Аманда Сайфред, Наталия Дайер, Карен Аллен, Джеймс Нортон, Ф. Мюррэй Абрахам, Алекс Нюстадтер, Джек Гор, Коттер Смит, Эмили Дорш [url=/tag/1/][/url]
[url=/tag/1/][/url]
Описание: Героиня фильма — молодая художница, которая вместе со своим мужем переезжает из Манхэттена за город. Привыкая к новой жизни, девушка начнает подозревать, что с их домом что-то не так. Его предыдущие владельцы были убиты, и теперь проклятие может настигнуть самих героев. [url=/tag/1/][/url]
[url=/tag/1/][/url]

[url=/tag/1/][/url]
Страна: США [url=/tag/1/][/url]
Студия: Likely Story [url=/tag/1/][/url]
Продолжительность: 02:01:26 [url=/tag/1/][/url]
Перевод: Дублированный - Netflix [url=/tag/1/][/url]
[url=/tag/1/][/url]
[url=/tag/1/][/url]
[url=/tag/1/][/url]
Информация о файле: [url=/tag/1/][/url]
Кодек: AVC [url=/tag/1/][/url]
Формат: MKV [url=/tag/1/][/url]
Качество: WEB-DLRip-AVC [url=/tag/1/][/url]
Видео: MPEG-4 AVC, 1024x576, 23.976 fps, 1966 kbps [url=/tag/1/][/url]
Аудио RU: AC3, 6 ch, 48 kHz, 448 kbps [url=/tag/1/][/url]
Субтитры: Русские (Forced, full), английские [url=/tag/1/][/url]
Навигация по главам: Да [url=/tag/1/][/url]
[url=/tag/1/][/url]
[url=/tag/1/][/url]
[url=/tag/1/][/url] [url=/tag/1/][/url]
x264 info: frame I:1239 Avg QP:10.24 size: 95549 [url=/tag/1/][/url]
x264 info: frame P:37171 Avg QP:13.97 size: 26498 [url=/tag/1/][/url]
x264 info: frame B:136324 Avg QP:18.22 size: 5010 [url=/tag/1/][/url]
x264 info: consecutive B-frames: 2.0% 2.7% 10.6% 9.4% 11.7% 59.9% 1.5% 0.2% 0.1% 0.2% 0.3% 0.2% 1.2% [url=/tag/1/][/url]
[url=/tag/1/][/url]
General [url=/tag/1/][/url]
Unique ID : 153945857900560223467369731565413064448 (0x73D0E4CD186AC2B96583E997B37DDF00) [url=/tag/1/][/url]
Complete name : D:uTorrentРипы_от_wolf1245_MediaBitThings.Heard.and.Seen.2021.DUB.Netflix.WEB-DLRip-AVC.[wolf1245.MediaBit].mkv [url=/tag/1/][/url]
Format : Matroska [url=/tag/1/][/url]
Format version : Version 4 [url=/tag/1/][/url]
File size : 2.05 GiB [url=/tag/1/][/url]
Duration : 2 h 1 min [url=/tag/1/][/url]
Overall bit rate : 2 411 kb/s [url=/tag/1/][/url]
Movie name : Things.Heard.and.Seen.2021.DUB.Netflix.WEB-DLRip-AVC.[wolf1245.MediaBit] [url=/tag/1/][/url]
Encoded date : UTC 2021-04-29 18:06:01 [url=/tag/1/][/url]
Writing application : mkvmerge v56.1.0 ('My Friend') 64-bit [url=/tag/1/][/url]
Writing library : libebml v1.4.2 + libmatroska v1.6.4 [url=/tag/1/][/url]
[url=/tag/1/][/url]
Video [url=/tag/1/][/url]
ID : 1 [url=/tag/1/][/url]
Format : AVC [url=/tag/1/][/url]
Format/Info : Advanced Video Codec [url=/tag/1/][/url]
Format profile : High@L4.1 [url=/tag/1/][/url]
Format settings : CABAC / 14 Ref Frames [url=/tag/1/][/url]
Format settings, CABAC : Yes [url=/tag/1/][/url]
Format settings, Reference frames : 14 frames [url=/tag/1/][/url]
Codec ID : V_MPEG4/ISO/AVC [url=/tag/1/][/url]
Duration : 2 h 1 min [url=/tag/1/][/url]
Bit rate : 1 966 kb/s [url=/tag/1/][/url]
Width : 1 024 pixels [url=/tag/1/][/url]
Height : 576 pixels [url=/tag/1/][/url]
Display aspect ratio : 16:9 [url=/tag/1/][/url]
Frame rate mode : Constant [url=/tag/1/][/url]
Frame rate : 23.976 (24000/1001) FPS [url=/tag/1/][/url]
Color space : YUV [url=/tag/1/][/url]
Chroma subsampling : 4:2:0 [url=/tag/1/][/url]
Bit depth : 8 bits [url=/tag/1/][/url]
Scan type : Progressive [url=/tag/1/][/url]
Bits/(Pixel*Frame) : 0.139 [url=/tag/1/][/url]
Stream size : 1.66 GiB (81%) [url=/tag/1/][/url]
Title : .[wolf1245.MediaBit] [url=/tag/1/][/url]
Writing library : x264 core 157 r2958 57baac4 [url=/tag/1/][/url]
Encoding settings : cabac=1 / ref=14 / deblock=1:0:0 / analyse=0x3:0x133 / me=umh / subme=10 / psy=1 / psy_rd=0.95:0.00 / mixed_ref=1 / me_range=32 / chroma_me=1 / trellis=2 / 8x8dct=1 / cqm=0 / deadzone=21,11 / fast_pskip=1 / chroma_qp_offset=-2 / threads=10 / lookahead_threads=2 / sliced_threads=0 / nr=0 / decimate=1 / interlaced=0 / bluray_compat=0 / constrained_intra=0 / bframes=12 / b_pyramid=2 / b_adapt=2 / b_bias=0 / direct=3 / weightb=1 / open_gop=0 / weightp=2 / keyint=240 / keyint_min=24 / scenecut=40 / intra_refresh=0 / rc_lookahead=40 / rc=2pass / mbtree=1 / bitrate=1966 / ratetol=1.0 / qcomp=0.60 / qpmin=0 / qpmax=69 / qpstep=4 / cplxblur=20.0 / qblur=0.5 / vbv_maxrate=50000 / vbv_bufsize=62500 / nal_hrd=none / filler=0 / ip_ratio=1.40 / aq=1:0.80 [url=/tag/1/][/url]
Language : English [url=/tag/1/][/url]
Default : Yes [url=/tag/1/][/url]
Forced : No [url=/tag/1/][/url]
[url=/tag/1/][/url]
Audio [url=/tag/1/][/url]
ID : 2 [url=/tag/1/][/url]
Format : AC-3 [url=/tag/1/][/url]
Format/Info : Audio Coding 3 [url=/tag/1/][/url]
Commercial name : Dolby Digital [url=/tag/1/][/url]
Codec ID : A_AC3 [url=/tag/1/][/url]
Duration : 2 h 1 min [url=/tag/1/][/url]
Bit rate mode : Constant [url=/tag/1/][/url]
Bit rate : 448 kb/s [url=/tag/1/][/url]
Channel(s) : 6 channels [url=/tag/1/][/url]
Channel layout : L R C LFE Ls Rs [url=/tag/1/][/url]
Sampling rate : 48.0 kHz [url=/tag/1/][/url]
Frame rate : 31.250 FPS (1536 SPF) [url=/tag/1/][/url]
Bit depth : 32 bits [url=/tag/1/][/url]
Compression mode : Lossy [url=/tag/1/][/url]
Stream size : 389 MiB (19%) [url=/tag/1/][/url]
Title : DUB | Netflix [url=/tag/1/][/url]
Language : Russian [url=/tag/1/][/url]
Service kind : Complete Main [url=/tag/1/][/url]
Default : Yes [url=/tag/1/][/url]
Forced : No [url=/tag/1/][/url]
[url=/tag/1/][/url]
Text #1 [url=/tag/1/][/url]
ID : 3 [url=/tag/1/][/url]
Format : UTF-8 [url=/tag/1/][/url]
Codec ID : S_TEXT/UTF8 [url=/tag/1/][/url]
Codec ID/Info : UTF-8 Plain Text [url=/tag/1/][/url]
Duration : 1 h 59 min [url=/tag/1/][/url]
Bit rate : 1 b/s [url=/tag/1/][/url]
Count of elements : 34 [url=/tag/1/][/url]
Stream size : 1.67 KiB (0%) [url=/tag/1/][/url]
Title : Forced [url=/tag/1/][/url]
Language : Russian [url=/tag/1/][/url]
Default : Yes [url=/tag/1/][/url]
Forced : Yes [url=/tag/1/][/url]
[url=/tag/1/][/url]
Text #2 [url=/tag/1/][/url]
ID : 4 [url=/tag/1/][/url]
Format : UTF-8 [url=/tag/1/][/url]
Codec ID : S_TEXT/UTF8 [url=/tag/1/][/url]
Codec ID/Info : UTF-8 Plain Text [url=/tag/1/][/url]
Duration : 1 h 59 min [url=/tag/1/][/url]
Bit rate : 81 b/s [url=/tag/1/][/url]
Count of elements : 1379 [url=/tag/1/][/url]
Stream size : 71.3 KiB (0%) [url=/tag/1/][/url]
Title : Full [url=/tag/1/][/url]
Language : Russian [url=/tag/1/][/url]
Default : No [url=/tag/1/][/url]
Forced : No [url=/tag/1/][/url]
[url=/tag/1/][/url]
Text #3 [url=/tag/1/][/url]
ID : 5 [url=/tag/1/][/url]
Format : UTF-8 [url=/tag/1/][/url]
Codec ID : S_TEXT/UTF8 [url=/tag/1/][/url]
Codec ID/Info : UTF-8 Plain Text [url=/tag/1/][/url]
Duration : 1 h 57 min [url=/tag/1/][/url]
Bit rate : 63 b/s [url=/tag/1/][/url]
Count of elements : 1755 [url=/tag/1/][/url]
Stream size : 54.4 KiB (0%) [url=/tag/1/][/url]
Title : English [CC] [url=/tag/1/][/url]
Language : English [url=/tag/1/][/url]
Default : No [url=/tag/1/][/url]
Forced : No [url=/tag/1/][/url]
[url=/tag/1/][/url]
[url=/tag/1/][/url]
[url=/tag/1/][/url]

[url=/tag/1/][/url]


Источник http://listRutor.org

Внимание! AdBlock блокирует показ скриншотов, все вопросы к разработчикам )))
Трекер:  [ 29-Апр-2021 22:00 ]

  

Скачать .torrent

Размер .torrent файла 10 KB


Размер: 2.05 GB
Хэш (hash) релиза: 3e61c86ad3c6594218433392003ee8dad8341dbc
Подписка на обновления:

Еще никто не оставлял запись к записи скачать торрент Увиденное и услышанное Things Heard & Seen . Будь первым!

!Обратная связь