Скачать через торрент Кооперация Confidential Assignment Фильм бесплатно в хорошем качестве torrent

Скачивайте на UnionPeer.org фильмы через торрент без регистрации. Новинки кино в хорошем качестве через торрент. На UnionPeer.org можно скачать через торрент фильмы 2014 и 2015 годов. Самые новые фильмы.

Скачать торрент Кооперация Confidential Assignment бесплатно через .torrent фильм мультфильм сериал

Статистика раздачи
Размер:  746 MB   |    Зарегистрирован:  4 месяца 28 дней   |    .torrent скачан:  68 раз   |   

Пиры будут получены при скачивании

 

Скачать Кооперация / Confidential Assignment / Gongjo (2017) HDRip-AVC | iTunes через torrent

 
 
Автор Сообщение

Galfimbul

avatar Galfimbul


Название: Кооперация
Оригинальное название: Confidential Assignment / Gongjo
Год выхода: 2017
Жанр: боевик, драма, комедия
Режиссер: Ким Сон-хун
В ролях: Хён Бин, Ю Хэ-джин, Ким Джу-хёк, Чан Ён-нам, Ли Дон-хви, Юна, Кон Джон-хван, Ли Хэ-ён, Чон Гук-хван

О фильме:
Полковник погранслужбы Северной Кореи Чха Ги-сон занимался поставкой контрабандного оружия для армии, но однажды решил воспользоваться положением и начал возить через границу ещё и наркотики. Был в этом уличен, разжалован, лишен всех регалий. Чтобы отомстить режиму чучхе (в том числе за погибшую в тюрьме жену) бывший полковник выкрал сделанные Пхеньяном клише для печатания фальшивых долларов, намереваясь выгодно продать их за рубежом.
Если на Западе (или хотя бы в Сеуле) узнают о том, что северяне пытаются обвалить американскую валюту, это может стать началом политического скандала. По этой причине в погоню за беглецом отправлен офицер внутренних сил Лим Чхоль-рён, у которого тот ещё и убил жену. Беглец находится нынче в Сеуле, поэтому впервые в истории отношений Севера и Юга следователи двух стран должны работать вместе. С одним лишь условием: детектив сеульской полиции Кан Джин-тхэ и его начальство не должны ничего знать о пропавших клише.



Страна: Южная Корея
Студия: CJ Entertainment
Продолжительность: 02:04:14
Перевод: Дублированный (iTunes)
Субтитры: Русские, Английские

Файл
Формат: Matroska
Качество: HDRip-AVC
Видео: 720x302 at 24.000 fps, x264@L4.1, ~758 kbps, 0.145 bpp
Аудио: AAC, 2 ch, ~80 kbps - | Русский | -
Формат субтитров: softsub (SRT)
x264 info: frame I:1897 Avg QP:17.38 size: 25729
x264 info: frame P:41743 Avg QP:19.62 size: 8520
x264 info: frame B:135256 Avg QP:21.60 size: 2223
x264 info: consecutive B-frames: 3.1% 4.2% 10.6% 23.7% 14.9% 32.5% 4.5% 2.3% 1.3% 1.2% 1.1% 0.2% 0.5%

General
Format : Matroska
Format version : Version 4
File size : 746 MiB
Duration : 2 h 4 min
Overall bit rate : 839 kb/s
Movie name : Кооперация.(2017).HDRip-AVC.[-=DoMiNo=-]
Encoded date : UTC 2021-04-29 17:53:32
Writing application : mkvmerge v44.0.0 ('Domino') 64-bit
Writing library : libebml v1.3.10 + libmatroska v1.5.2
Attachments : poster / poster

Video
ID : 1
Format : AVC
Format/Info : Advanced Video Codec
Format profile : High@L4.1
Format settings : CABAC / 14 Ref Frames
Format settings, CABAC : Yes
Format settings, Reference : 14 frames
Codec ID : V_MPEG4/ISO/AVC
Duration : 2 h 4 min
Bit rate : 758 kb/s
Width : 720 pixels
Height : 302 pixels
Display aspect ratio : 2.40:1
Frame rate mode : Constant
Frame rate : 24.000 FPS
Color space : YUV
Chroma subsampling : 4:2:0
Bit depth : 8 bits
Scan type : Progressive
Bits/(Pixel*Frame) : 0.145
Stream size : 672 MiB (90%)
Title : -=DoMiNo=-
Writing library : x264 core 161 r3020 d198931
Encoding settings : cabac=1 / ref=14 / deblock=1:-1:-1 / analyse=0x3:0x133 / me=umh / subme=10 / psy=1 / psy_rd=0.96:0.00 / mixed_ref=1 / me_range=32 / chroma_me=1 / trellis=2 / 8x8dct=1 / cqm=0 / deadzone=21,11 / fast_pskip=0 / chroma_qp_offset=-2 / threads=6 / lookahead_threads=1 / sliced_threads=0 / nr=0 / decimate=0 / interlaced=0 / bluray_compat=0 / constrained_intra=0 / bframes=12 / b_pyramid=2 / b_adapt=2 / b_bias=0 / direct=3 / weightb=1 / open_gop=0 / weightp=2 / keyint=240 / keyint_min=24 / scenecut=40 / intra_refresh=0 / rc=2pass / mbtree=0 / bitrate=758 / ratetol=1.0 / qcomp=0.65 / qpmin=0 / qpmax=69 / qpstep=4 / cplxblur=20.0 / qblur=0.5 / ip_ratio=1.12 / pb_ratio=1.30 / aq=3:0.90
Language : Korean
Default : Yes
Forced : No
Color range : Limited
Matrix coefficients : BT.709

Audio
ID : 2
Format : AAC LC SBR
Format/Info : Advanced Audio Codec Low Complexity with Spectral Band Replication
Commercial name : HE-AAC
Format settings : Implicit
Codec ID : A_AAC-2
Duration : 2 h 4 min
Bit rate : 80.0 kb/s
Channel(s) : 2 channels
Channel layout : L R
Sampling rate : 48.0 kHz
Frame rate : 23.438 FPS (2048 SPF)
Compression mode : Lossy
Stream size : 71.1 MiB (10%)
Title : DUB (iTunes)
Language : Russian
Default : Yes
Forced : Yes

Text #1
ID : 3
Format : UTF-8
Codec ID : S_TEXT/UTF8
Codec ID/Info : UTF-8 Plain Text
Duration : 2 h 1 min
Bit rate : 97 b/s
Count of elements : 1728
Stream size : 86.6 KiB (0%)
Language : Russian
Default : No
Forced : No

Text #2
ID : 4
Format : UTF-8
Codec ID : S_TEXT/UTF8
Codec ID/Info : UTF-8 Plain Text
Duration : 2 h 1 min
Bit rate : 46 b/s
Count of elements : 1601
Stream size : 41.8 KiB (0%)
Title : Full
Language : English
Default : No
Forced : No

Menu
00:00:00.000 : :00:00:00.000
00:10:21.625 : :00:10:21.625
00:20:48.916 : :00:20:48.916
00:30:36.625 : :00:30:36.625
00:40:54.708 : :00:40:54.708
00:51:25.833 : :00:51:25.833
00:59:25.083 : :00:59:25.083
01:11:14.166 : :01:11:14.166
01:21:33.958 : :01:21:33.958
01:31:54.000 : :01:31:54.000
01:42:56.458 : :01:42:56.458
01:54:06.166 : :01:54:06.166
Источник http://listRutor.org

Внимание! AdBlock блокирует показ скриншотов, все вопросы к разработчикам )))
Трекер:  [ 29-Апр-2021 22:00 ]

  

Скачать .torrent

Размер .torrent файла 29 KB


Размер: 746 MB
Хэш (hash) релиза: 1c123426a1aefbb4565f542f1f8f4889ffda681b
Подписка на обновления:

Еще никто не оставлял запись к записи скачать торрент Кооперация Confidential Assignment . Будь первым!

!Обратная связь