Скачать порно через торрент Pet Of The Year Play-Off 1991 & 1992 Winners Pet Of The Year Play-Off 1991 & 1992 Winners UnionPeer.org бесплатно онлайн HD качество

Скачать новое порно 2015, 2014 новинки через торрент UnionPeer.org

Порно торрент бесплатно ЮнионПир.орг

Статистика раздачи
Размер:  1.13 GB   |    Зарегистрирован:  23 дня   |    .torrent скачан:  1751 раз   |   
Раздают:  6   Качают:  1  
 

Скачать Pet Of The Year Play-Off 1991 & 1992 Winners / Pet Of The Year Play-Off 1991 & 1992 Winners [Upscale] [1991 г.] через torrent

 
 
Автор Сообщение

Galfimbul ghost

avatar Galfimbul ghost


<div class="post-user-message"> Pet Of The Year Play-Off 1991 & 1992 Winners / Pet Of The Year Play-Off 1991 & 1992 Winners [Upscale HEVC]

Год производства: 1991-1992 г.
Страна: USA
Жанр: Erotic
Продолжительность: 53:16+37:21
Режиссер: Paul Nevitt
Студия: Penthouse
В ролях: Lynn Johnson, Amy Lynn, Brandy Ledford, Amy Lynn Baxter

Описание-Pet Of The Year Play-Off 1991: Which of these magnificent photographs in the magazine spread Penthouses, you would choose as a Pet Year? As the competition - it is hot, perhaps you should throw really close look. Then look snova.I again. Smakov erotic appeal Jisel ... dropped out of sight, private secret mysterious Lynn ... observe unpredictable Amy in her most rebellious. Catch them all in their most playful whims ... and the best moments. Who will be the Year of our pets? We defy
You decide if you can. These ladies will do about anything, to win your vote.

Описание-Pet Of The Year 1992 Winners: Judge for yourself what it takes to be a Penthouse Pet of the Year, as Brandy takes us into her private world of sultry fantasies and revealing secrets. She's erotic and unabashed...the ultimate Penthouse Centerfold. And if that’s not enough to get your pulse racing, we’ve added another long and loving look at runner-up Amy Lynn at their sexiest best. She’s unpredictable and every inch a winner.

Качество: Upscale
Формат: MKV
Видео кодек: HEVC h265
Аудио кодек: AAC LC
Видео: 960 x 720 (4:3)
Аудио: 48000 Гц, Стерео, 128 Кбит/сек

Прогнано через Topaz Video Enhance AI убрал зерно и поднял разрешение .
et Of The Year Play-Off 1992 & 1993 Winners_T1.mkv
Format : Matroska
Format version : Version 4
File size : 684 MiB
Duration : 59 min 50 s
Overall bit rate : 1 598 kb/s
Encoded date : UTC 2021-05-22 07:19:11
Writing application : mkvmerge v55.0.0 ('Waiting For Space') 64-bit
Writing library : libebml v1.4.2 + libmatroska v1.6.4

Video
ID : 1
Format : HEVC
Format/Info : High Efficiency Video Coding
Format profile : Main 10@L4@Main
Codec ID : V_MPEGH/ISO/HEVC
Duration : 59 min 50 s
Bit rate : 1 497 kb/s
Width : 960 pixels
Height : 720 pixels
Display aspect ratio : 4:3
Frame rate mode : Constant
Frame rate : 50.000 FPS
Color space : YUV
Chroma subsampling : 4:2:0
Bit depth : 10 bits
Bits/(Pixel*Frame) : 0.043
Stream size : 641 MiB (94%)
Writing library : x265 3.5+9+14-6c69ed37d:[Windows][GCC 10.2.0][64 bit] 10bit
multi-pass
Default : Yes
Forced : No

Audio
ID : 2
Format : AAC LC
Format/Info : Advanced Audio Codec Low Complexity
Codec ID : A_AAC-2
Duration : 59 min 50 s
Bit rate : 96.0 kb/s
Channel(s) : 2 channels
Channel layout : L R
Sampling rate : 48.0 kHz
Frame rate : 46.875 FPS (1024 SPF)
Compression mode : Lossy
Stream size : 41.3 MiB (6%)
Language : Russian
Default : No
Forced : No

Pet Of The Year Play-Off 1992 & 1993 Winners_T2.mkv
Format : Matroska
Format version : Version 4
File size : 477 MiB
Duration : 36 min 12 s
Overall bit rate : 1 841 kb/s
Encoded date : UTC 2021-05-22 13:42:10
Writing application : mkvmerge v55.0.0 ('Waiting For Space') 64-bit
Writing library : libebml v1.4.2 + libmatroska v1.6.4

Video
ID : 1
Format : HEVC
Format/Info : High Efficiency Video Coding
Format profile : Main 10@L4@Main
Codec ID : V_MPEGH/ISO/HEVC
Duration : 36 min 12 s
Bit rate : 1 741 kb/s
Width : 960 pixels
Height : 720 pixels
Display aspect ratio : 4:3
Frame rate mode : Constant
Frame rate : 50.000 FPS
Color space : YUV
Chroma subsampling : 4:2:0
Bit depth : 10 bits
Bits/(Pixel*Frame) : 0.050
Stream size : 451 MiB (95%)
Writing library : x265 3.5+9+14-6c69ed37d:[Windows][GCC 10.2.0][64 bit] 10bit
multi-pass
Default : Yes
Forced : No

Audio
ID : 2
Format : AAC LC
Format/Info : Advanced Audio Codec Low Complexity
Codec ID : A_AAC-2
Duration : 36 min 12 s
Bit rate : 96.0 kb/s
Channel(s) : 2 channels
Channel layout : L R
Sampling rate : 48.0 kH
Frame rate : 46.875 FPS (1024 SPF)
Compression mode : Lossy
Stream size : 25.0 MiB (5%)
Language : Russian
Default : No
Forced : No
</div>

Внимание! AdBlock блокирует показ скриншотов, все вопросы к разработчикам )))
Трекер:  [ 23-Май-2021 20:08 ]

  

Скачать .torrent

Размер .torrent файла 12 KB


Размер: 1.13 GB
Хэш (hash) релиза: e61cde139b027eb52db36fe992d44767a092a50f

Еще никто не оставлял запись к записи скачать торрент Pet Of The Year Play-Off 1991 & 1992 Winners Pet Of The Year Play-Off 1991 & 1992 Winners . Будь первым!

!Обратная связь