Скачать порно через торрент Le Prix de la Luxure Цена наслаждения UnionPeer.org бесплатно онлайн HD качество

Скачать новое порно 2015, 2014 новинки через торрент UnionPeer.org

Порно торрент бесплатно ЮнионПир.орг

Статистика раздачи
Размер:  7.46 GB   |    Зарегистрирован:  2 года 6 месяцев   |    .torrent скачан:  1362 раза   |   

Пиры будут получены при скачивании

   
 
Автор Сообщение

Galfimbul

avatar Galfimbul


Le Prix de la Luxure / Цена наслаждения (Плата за страсть)

Год производства: 1998 г.
Страна: Франция
Жанр: Story, Anal, Lesbo, Hardcore
Продолжительность: 1h 45mn

Режиссер: Michael d'Angelo and Marc Dorcel
Язык: Русский
В ролях: Female cast: Cassandra, Eva Falk, Kathy Kash, Oceane, Laure Sainclair , Matalana
Male cast: Bruno Assix, David Perry, Mike Foster, Roberto Malone, Zenza Raggi

Описание: Описание:
Laure caught her husband fornicating with a passing beauty. Deeply appalled, she comes under the influence of Matalana, a gorgeous voodoo sorceress.
In the hope of making her unfaithful husband come back, Laure complies with the fantasy of perverse erotomaniac, under the eager and concupiscent glance of the witch...
Руссокое описание:
Красивая. Умная. Богатая. У французской красотки Лауры есть все основания быть счастливой. Вот только муж ей неверен. Как ей вернуть обратно своего мужчину? Может, спросить у колдуньи-вуду Маталаны, которая владеет черной магией? Заклинание, или парочка предметов, подброшенных в нужном месте, и уже никто не скажет, к чему это может привести. Но ясно только одно: тот, кто играет в эту игру, расплачивается за нее - так или иначе.

Доп. материалы: Специально для данного форума и тех кто оставляет комментарии в поддержку моей деятельности,Эта 5 работа для вас!!

Тип HD видео: 1080p
Качество видео: Upscale
Формат видео: MP4
Видео: 1280х960, 25 кадров , 10 000 кБс ,mp4
Аудио: 192 кБс ,2 канала стерео, 44 100
Общее
Полное имя : E:\porno\Le Prix De La Luxure\Le Prixdela Luxure.mp4
Формат : MPEG-4
Профиль формата : Base Media
Идентификатор кодека : isom (isom/iso2/avc1/mp41)
Размер файла : 7,46 Гбайт
Продолжительность : 1 ч. 44 м.
Режим общего битрейта : Постоянный
Общий поток : 10,2 Мбит/сек
encoder : Lavf58.12.100

Видео
Идентификатор : 1
Формат : AVC
Формат/Информация : Advanced Video Codec
Профиль формата : [email protected]
Настройки формата : CABAC / 3 Ref Frames
Параметр CABAC формата : Да
Параметр RefFrames формата : 3 кадра
Параметр GOP формата : M=1, N=25
Идентификатор кодека : avc1
Идентификатор кодека/Информация : Advanced Video Coding
Продолжительность : 1 ч. 44 м.
Вид битрейта : Постоянный
Битрейт : 10 000 Кбит/сек
Ширина : 1 280 пикселей
Высота : 960 пикселей
Соотношение сторон : 4:3
Режим частоты кадров : Постоянный
Частота кадров : 25,000 кадров/сек
Цветовое пространство : YUV
Субдискретизация насыщенности : 4:2:0
Битовая глубина : 8 бит
Тип развёртки : Прогрессивная
Бит/(Пиксели*Кадры) : 0.326
Размер потока : 7,32 Гбайт (98%)
Codec configuration box : avcC

Аудио
Идентификатор : 2
Формат : AAC LC
Формат/Информация : Advanced Audio Codec Low Complexity
Идентификатор кодека : mp4a-40-2
Продолжительность : 1 ч. 44 м.
Вид битрейта : Постоянный
Битрейт : 192 Кбит/сек
Каналы : 2 канала
Channel layout : L R
Частота : 44,1 КГц
Частота кадров : 43,066 кадра/сек (1024 SPF)
Метод сжатия : С потерями
Размер потока : 146 Мбайт (2%)
Default : Да
Alternate group : 1


Внимание! AdBlock блокирует показ скриншотов, все вопросы к разработчикам )))
Трекер:  [ 28-Авг-2021 22:02 ]

  

Скачать .torrent

Размер .torrent файла 19 KB


Размер: 7.46 GB
Хэш (hash) релиза: fdac8a424451f0477d633369a9cb7f9d05a035fe

Еще никто не оставлял запись к записи скачать торрент Le Prix de la Luxure Цена наслаждения . Будь первым!

!Обратная связь