Скачать порно через торрент Lolita Anime UnionPeer.org бесплатно онлайн HD качество

Скачать новое порно 2015, 2014 новинки через торрент UnionPeer.org

Порно торрент бесплатно ЮнионПир.орг

Статистика раздачи
Размер:  1.25 GB   |    Зарегистрирован:  2 года 5 месяцев   |    .torrent скачан:  142 раза   |   

Пиры будут получены при скачивании

 

Скачать Lolita Anime (Wonder Kids) / Лолита Аниме (Вондер Кидс) (Kuni Toniro, Wonder Kids) (ep. 3 of 6) [uncen] [1984, small breasts, flat chest, science fiction, straight, LD->DVD5] [jap] через torrent

 
 
Автор Сообщение

Galfimbul

avatar Galfimbul


Lolita Anime (Wonder Kids) / ロリータアニメ / Лолита Аниме (Вондер Кидс)
Год выпуска: 1984
Жанр: small breasts, flat chest, science fiction, straight
Серии: ep. 3 of 6
Продолжительность: 00:24:28
Цензура: Отсутствует

Язык: Японский
Озвучка: Оригинальная

Режиссер: Kuni Toniro
Автор оригинала: Fumio Nakajima
Студия: Wonder Kids

Описание: Этот сериал, выпущенный компанией Wonder Kids (ワンダーキッズ), считается первым представителем жанра хентай. Не следует путать его с одноимённой серией, выпущенной несколько позже компанией Nikkatsu Video (にっかつビデオ).

Доп. информация: Только третья часть. Похоже, что это лазерный диск "конвертированный" в DVD.

Качество видео: DVD5
Формат видео: MPEG

Видео: MPEG2 Video 720x576 (4:3) 25fps 6929Kbps
Аудио 1: Dolby AC3 48000Hz stereo 224kbps
General
Format : MPEG-PS
File size : 1 024 MiB
Duration : 19 min 36 s
Overall bit rate mode : Variable
Overall bit rate : 7 298 kb/s
Writing library : encoded by TMPGEnc DVD Author 3 Version. 3.1.2.176

Video
ID : 224 (0xE0)
Format : MPEG Video
Format version : Version 2
Format profile : Main@Main
Format settings : BVOP
Format settings, BVOP : Yes
Format settings, Matrix : Default
Format settings, GOP : Variable
Duration : 19 min 36 s
Bit rate mode : Variable
Bit rate : 6 929 kb/s
Maximum bit rate : 8 000 kb/s
Width : 720 pixels
Height : 576 pixels
Display aspect ratio : 4:3
Frame rate : 25.000 FPS
Standard : PAL
Color space : YUV
Chroma subsampling : 4:2:0
Bit depth : 8 bits
Scan type : Progressive
Compression mode : Lossy
Bits/(Pixel*Frame) : 0.668
Time code of first frame : 00:00:00:00
Time code source : Group of pictures header
Stream size : 972 MiB (95%)
Writing library : TMPGEnc DVD Author 3 Version. 3.1.2.176
Color primaries : BT.601 PAL
Transfer characteristics : BT.470 System B/G
Matrix coefficients : BT.470 System B/G

Audio
ID : 189 (0xBD)-128 (0x80)
Format : AC-3
Format/Info : Audio Coding 3
Commercial name : Dolby Digital
Muxing mode : DVD-Video
Duration : 19 min 36 s
Bit rate mode : Constant
Bit rate : 224 kb/s
Channel(s) : 2 channels
Channel layout : L R
Sampling rate : 48.0 kHz
Frame rate : 31.250 FPS (1536 SPF)
Compression mode : Lossy
Stream size : 31.4 MiB (3%)
Service kind : Complete Main


Внимание! AdBlock блокирует показ скриншотов, все вопросы к разработчикам )))
Трекер:  [ 04-Сен-2021 12:22 ]

  

Скачать .torrent

Размер .torrent файла 14 KB


Размер: 1.25 GB
Хэш (hash) релиза: 9a51d9c46514b2219bd4e23e0831cc6e0bd09452

Торренты, похожие на Lolita Anime скачать торрент

Форум Название Автор Размер S L Добавлен
Хентай | С цензурой ·· Rori kei anime shoujo / Loli Girl 3D / Lolita anime girl / Няшная лолита (RenderingHoliday) [cen] [2012 г., POV, Big tits, Oral, Straight, DLversion] [jap] [720p] Galfimbul 7961544176 MB 0 0 1328855951

09:39

10-Фев-12

Хентай: основной подраздел / Hentai: main subsection ·· Lolita Anime (Wonder Kids) / Лолита Аниме (Вондер Кидс)(ep. 1-6 of 6)[uncen][1984-1985 г., Classics, BDSM, Bondage, Sexual Abuse, Small Breasts, Yuri, VHSRip][jap/eng(3,5)/rus(3,5)/fin(3)] Galfimbul 16380575001.53 GB 0 0 1583580608

14:30

7-Мар-20

Хентай и Манга, Мультфильмы и Комиксы, Рисунки / Hentai & Manga, Cartoons & Comics, Artwork ·· Lolita Anime (Nikkatsu Video) (Uchiyama Aki, Nikkatsu) (ep. 1-2 of 3) [uncen] [1984-1985, psychedelia, small breast, classics, fantasy, pantsu, yuri, peeing, LDRip] [jap / rus] Galfimbul 674828299644 MB 0 0 1514998307

19:51

3-Янв-18

Тематическое и нетрадиционное фото / Misc & Special Interest Picture Packs ·?· [ROOM013] Lovely Kuroneko Ero Cosplay by Tsubomi [Cosplay, Anime, Erotica, Gothic Lolita, Oppai, Ore no Imouto] [1600x2400, 2400x1600, 101] Galfimbul 199423625190 MB 0 0 1669434820

06:53

26-Ноя-22

Игры: основной подраздел / Games: main subsection ·· Bondage Tale of Lolita in Black [1.0] (Sakuranbo Elementary School) [cen] [2014, ADV, Animation, SLG, Tiny Breasts,Dirty Talk, Bondage] [jap] Galfimbul 19519556521.82 GB 0 0 1647070926

10:42

12-Мар-22

Архив (общий) ·· Aoi Ichigo - Seirei Tsukai no Blade Dance, No Game No Life [CEP-36, 37] (CE Pure (CEピュア)) [cen] [2015 г., Blowjob, Cosplay, Anime, Toys, Lolita] [720p] Galfimbul 22636842342.11 GB 0 0 1433450289

23:38

4-Июн-15

Еще никто не оставлял запись к записи скачать торрент Lolita Anime . Будь первым!

!Обратная связь