Скачать порно через торрент Cinzia - Italian Shemale 19 UnionPeer.org бесплатно онлайн HD качество

Скачать новое порно 2015, 2014 новинки через торрент UnionPeer.org

Порно торрент бесплатно ЮнионПир.орг

Статистика раздачи
Размер:  7.06 GB   |    Зарегистрирован:  8 месяцев   |    .torrent скачан:  547 раз   |   

Пиры будут получены при скачивании

 

Скачать Cinzia - Italian Shemale 19 (Massimo Ferrante, Pink'o Enterprise) [2007 г., Shemale, 2160p, Upscale] через torrent

 
 
Автор Сообщение

Galfimbul

avatar Galfimbul


Cinzia - Italian Shemale 19

Год производства: 2007 г.
Страна: Italia
Жанр: Shemale
Продолжительность: 0:21:36

Режиссер: Massimo Ferrante
Студия: Pink'o Enterprise

В ролях: Cinzia

Описание: ТРИО

Тип HD видео: 2160p
Качество видео: Upscale
Формат видео: MKV Bit rate : 46.7 Mb/s
Формат аудиоMP-3 96 kb /sec
General
Complete name : F:\cinzia.amanda.dude.italian.shemale.19_5.63x_3840x2160_amq-12.mp4
Format : MPEG-4
Format profile : Base Media
Codec ID : isom (isom/iso2/avc1/mp41)
File size : 7.06 GiB
Duration : 21 min 36 s
Overall bit rate : 46.8 Mb/s
Writing application : Lavf58.20.100

Video
ID : 1
Format : AVC
Format/Info : Advanced Video Codec
Format profile : Baseline@L5.1
Format settings : 1 Ref Frames
Format settings, CABAC : No
Format settings, Reference fra : 1 frame
Format settings, GOP : M=1, N=12
Codec ID : avc1
Codec ID/Info : Advanced Video Coding
Duration : 21 min 36 s
Bit rate : 46.7 Mb/s
Width : 3 840 pixels
Height : 2 160 pixels
Display aspect ratio : 16:9
Frame rate mode : Constant
Frame rate : 25.000 FPS
Color space : YUV
Chroma subsampling : 4:2:0
Bit depth : 8 bits
Scan type : Progressive
Bits/(Pixel*Frame) : 0.225
Stream size : 7.05 GiB (100%)
Writing library : x264 core 157 r2970 5493be8
Encoding settings : cabac=0 / ref=1 / deblock=0:0:0 / analyse=0:0 / me=dia / subme=0 / psy=1 / psy_rd=1.00:0.00 / mixed_ref=0 / me_range=16 / chroma_me=1 / trellis=0 / 8x8dct=0 / cqm=0 / deadzone=21,11 / fast_pskip=1 / chroma_qp_offset=0 / threads=8 / lookahead_threads=1 / sliced_threads=0 / nr=0 / decimate=1 / interlaced=0 / bluray_compat=0 / constrained_intra=0 / bframes=0 / weightp=0 / keyint=12 / keyint_min=1 / scenecut=0 / intra_refresh=0 / rc=crf / mbtree=0 / crf=17.0 / qcomp=0.60 / qpmin=0 / qpmax=69 / qpstep=4 / ip_ratio=1.40 / aq=0
Codec configuration box : avcC

Audio
ID : 2
Format : AAC LC
Format/Info : Advanced Audio Codec Low Complexity
Codec ID : mp4a-40-2
Duration : 21 min 36 s
Bit rate mode : Constant
Bit rate : 96.0 kb/s
Channel(s) : 2 channels
Channel layout : L R
Sampling rate : 48.0 kHz
Frame rate : 46.875 FPS (1024 SPF)
Compression mode : Lossy
Stream size : 14.9 MiB (0%)
Default : Yes
Alternate group : 1


Внимание! AdBlock блокирует показ скриншотов, все вопросы к разработчикам )))
Трекер:  [ 13-Сен-2021 02:30 ]

  

Скачать .torrent

Размер .torrent файла 18 KB


Размер: 7.06 GB
Хэш (hash) релиза: cc35a2970c17ad64f1d8ac4b1fad0421f6ba5113

Еще никто не оставлял запись к записи скачать торрент Cinzia - Italian Shemale 19 . Будь первым!

!Обратная связь