Скачать порно через торрент Private Gold 107: Cheating Hollywood Wives Неверные Голливудские Жены UnionPeer.org бесплатно онлайн HD качество

Скачать новое порно 2015, 2014 новинки через торрент UnionPeer.org

Порно торрент бесплатно ЮнионПир.орг

Статистика раздачи
Размер:  4.37 GB   |    Зарегистрирован:  1 год 10 месяцев   |    .torrent скачан:  337 раз   |   

Пиры будут получены при скачивании

 

Скачать Private Gold 107: Cheating Hollywood Wives / Неверные Голливудские Жены (Dave Naz / Private) [2009 г., Feature, Anal, DP, Interracial, Hardcore,720p, BDRip] Release Date : June 03, 2010 через torrent

 
 
Автор Сообщение

Galfimbul

avatar Galfimbul


Private Gold 107: Cheating Hollywood Wives / Неверные Голливудские Жены

Год производства: 2009 Страна: USA Жанр: Feature, Anal, DP, Interracial, Hardcore
Продолжительность: 136 min Режиссер: Dave NazСтудия:Private
В ролях:
Sasha Grey
, Jada Fire, Rebeca Linares, Nina Hartley
, Sascha, Tara Lynn Foxx, Tory Lane, Alan Stafford, Chris Johnson, Mr. Marcus, T.J. Cummings, Tommy Gun
Horny housewives married to the rich and famous use male escort agencies to fulfill their sordid sexual fantasies including huge cock, double penetration, interracial, mother and daughter, cream pies, BDSM, snowballing and extreme gagging. Sporting an impressive cast of Hollywood "cliterati" including Sasha Grey, Nina Hartley, Rebecca Linares and Tara Lynn Foxx.
Качество видео: BDRip
Видео: x264 5462 Kbps 1280 x 720 (1.778) at 23.976 fps
Аудио: AC3 192 Kbps 2 channels, 48.0 KHz
Format : Matroska
File size : 4.37 GiB
Duration : 1h 48mn
Overall bit rate : 5 769 Kbps
Encoded date : UTC 2016-12-15 17:13:02
Writing application : mkvmerge v3.2.0 ('Beginnings') built on Feb 12 2010 16:46:17
Writing library : libebml v0.7.9 + libmatroska v0.8.1

Video
ID : 1
Format : AVC
Format/Info : Advanced Video Codec
Format profile : [email protected]
Format settings, CABAC : Yes
Format settings, ReFrames : 5 frames
Muxing mode : Container [email protected]
Codec ID : V_MPEG4/ISO/AVC
Duration : 1h 48mn
Bit rate : 5 462 Kbps
Nominal bit rate : 5 576 Kbps
Width : 1 280 pixels
Height : 720 pixels
Display aspect ratio : 16:9
Frame rate : 23.976 fps
Resolution : 8 bits
Colorimetry : 4:2:0
Scan type : Progressive
Bits/(Pixel*Frame) : 0.247
Stream size : 4.14 GiB (95%)
Writing library : x264 core 98 r1649 c54c47d
Encoding settings : cabac=1 / ref=5 / deblock=1:0:0 / analyse=0x3:0x133 / me=umh / subme=7 / psy=1 / psy_rd=1.00:0.00 / mixed_ref=1 / me_range=16 / chroma_me=1 / trellis=1 / 8x8dct=1 / cqm=0 / deadzone=21,11 / fast_pskip=1 / chroma_qp_offset=-2 / threads=6 / sliced_threads=0 / nr=0 / decimate=1 / interlaced=0 / constrained_intra=0 / bframes=3 / b_pyramid=2 / b_adapt=2 / b_bias=0 / direct=3 / weightb=1 / weightp=2 / keyint=250 / keyint_min=25 / scenecut=40 / intra_refresh=0 / rc=2pass / mbtree=0 / bitrate=5576 / ratetol=1.0 / qcomp=0.60 / qpmin=10 / qpmax=51 / qpstep=4 / cplxblur=20.0 / qblur=0.5 / ip_ratio=1.40 / pb_ratio=1.30 / aq=1:1.00

Audio
ID : 2
Format : AC-3
Format/Info : Audio Coding 3
Codec ID : A_AC3
Duration : 1h 48mn
Bit rate mode : Constant
Bit rate : 192 Kbps
Channel(s) : 2 channels
Channel positions : L R
Sampling rate : 48.0 KHz
Stream size : 149 MiB (3%)


Внимание! AdBlock блокирует показ скриншотов, все вопросы к разработчикам )))
Трекер:  [ 12-Ноя-2021 22:30 ]

  

Скачать .torrent

Размер .torrent файла 22 KB


Размер: 4.37 GB
Хэш (hash) релиза: 51e7eea4471c6384e0bc8434672cf22d2f0a9bd7

Торренты, похожие на Private Gold 107: Cheating Hollywood Wives Неверные Голливудские Жены скачать торрент

Форум Название Автор Размер S L Добавлен
Фильмы с сюжетом, Классические (HD Video) / Feature & Vignettes (HD Video) ·· Private Gold 107: Cheating Hollywood Wives / Неверные Голливудские Жены (Dave Naz, Private) [2009 г., Feature, Anal, DP, Interracial, Hardcore, 1080p, Blu-Ray] (Sasha Grey, Jada Fire, Rebeca Linares, Nina Hartley, Tara Lynn Foxx, Tory Lane) Galfimbul 1723011110816.05 GB 1 1 1657190649

13:44

7-Июл-22

Фильмы с сюжетом / Feature & Vignettes ·· Private Gold 107: Cheating Hollywood Wives / Неверные Голливудские Жены (Dave Naz, Private) (с русским переводом) [2009 г., Feature, Anal, DP, Interracial, Hardcore, BDRip, 720p] [rus] Galfimbul 47464174954.42 GB 0 0 1460294352

16:19

10-Апр-16

Фильмы с сюжетом / Feature & Vignettes ·· Private Gold 107: Cheating Hollywood Wives / Неверные Голливудские Жены (с русским переводом) (Dave Naz, Private) [2010 г., Features, All Sex, Married, Threesome, Housewives, Vignettes, Anal, DP, DVDRip] [rus] Galfimbul 21549895602.01 GB 0 0 1369406041

17:34

24-Май-13

Фильмы с сюжетом / Feature & Vignettes ·· Private Gold 107: CHeating Hollywood Wives / Неверные Голливудские Жены (Dave Naz, Private) [2009 г., Feature, Anal, DP, DVDRip] (Nina Hartley, Rebeca Linares, Sasha Grey, Tory Lane) Release Date: Feb 04, 2010! spider91 14615818241.36 GB 0 0 1364310397

18:06

26-Мар-13

Фильмы без сюжета 1991-2010 / All Sex & Amateur 1991-2010 ·· Private Gold 107: Cheating Hollywood Wives / Голливудские Неверные Жены (Private / Dave Naz) [2010, All Sex, Anal, DP, Straight, 1080p [url=https://adult-images.ru/1024/35489/]Смотреть онлайн[/url] [url=https://adult-images.ru/1024/35489/]Смотреть он Bot 1723011110816.05 GB 0 0 1311772612

16:16

27-Июл-11

Еще никто не оставлял запись к записи скачать торрент Private Gold 107: Cheating Hollywood Wives Неверные Голливудские Жены . Будь первым!

!Обратная связь