Скачать порно через торрент Eroge! H mo Game mo Kaihatsu Zanmai Порноигры! С головой — и в секс, и в разработку! UnionPeer.org бесплатно онлайн HD качество

Скачать новое порно 2015, 2014 новинки через торрент UnionPeer.org

Порно торрент бесплатно ЮнионПир.орг

Статистика раздачи
Размер:  55.31 GB   |    Зарегистрирован:  1 год 6 месяцев   |    .torrent скачан:  103 раза   |   
Раздают:  1  
   
 
Автор Сообщение

Galfimbul

avatar Galfimbul


Eroge! H mo Game mo Kaihatsu Zanmai / えろげー! ~Hもゲームも開発三昧~ / Порноигры! С головой — и в секс, и в разработку!

Год выпуска: 2014
Жанр: Big tits, Tiny tits, Footjob, Milk, Oral sex, Titsjob, X-Ray, Comedy, Beach, Harem, Toys
Серии: ep. 1-5 of 6
Продолжительность: 5х~30 min
Цензура: Есть во всех файлах

Язык: Японский
Озвучка: Оригинальная
Язык: Японский
Озвучка: Оригинальная
Режиссер: Matano Ryuuzou
Автор оригинала: ClockUp
Студия: Collaboration Works

Описание: Mochizuki Tomoya is a guy that lives on his own with only a day job at a convenience store keeping him afloat. While he really likes eroge, he can''t draw, isn''t much of a writer or composer, and doesn''t know much about business. Still, his dream is to get a job at an eroge studio in hopes of creating what he loves, eroge.
Tomoya''s luck takes a turn for the better when he sees a help wanted ad for the local studio Flower, and after a meeting with the company president (who to his surprise looks like an elementary school kid), manages to get a job as administrator of the company''s website. Tomoya''s glee at being part of the eroge industry is short-lived, as he soon learns that Flower is on the chopping block due to their first title being a massive failure.
After playing through Flower''s first title, Tomoya realizes that his co-workers don''t know anything about eroge, lacking the insight and understanding needed to make a good game. After some nudging from the president of Flower''s parent company and some soul searching of his own, our protagonist takes it upon himself to save Flower by teaching the four girls on staff the ins and outs of what makes an eroge good. The story thus focuses on Tomoya''s role as a psuedo-consultant while getting to know the four heroines of the story as the player is given an interesting look at the world of eroge development.

Доп. информация: Выпуск первой эротической игры студии Flower завершился полным провалом, и сотрудники остались без зарплаты. Впрочем, они не сотрудники, а сотрудницы — весь штат этой небольшой компании состоит из четырех миловидных девушек. У них внушительный стаж по части рисования додзинси и написания эротических новелл, и они добились некоторых успехов на этом поприще, но есть одно отягчающее обстоятельство: они все девственницы, и на результатах их труда сказывается отсутствие реального жизненного опыта. Для спасения положения на работу в компанию был срочно принят молодой человек, который прошел несколько сотен хентайных игр и стал, по сути, экспертом. Но вот беда: он тоже девственник, и реальной практики у него тоже нет. Тем не менее, теперь никто не мешает коллективу Flower обрести столько опыта, сколько позволит фантазия. Но исключительно ради сбора материала и последующего успеха нового проекта!

Тип HD видео: 1080p
Качество видео: Blu-Ray
Формат видео: Blu-Ray Video
Видео: MPEG4 Video (H264) 1920x1080 23.976fps [V: h264 high L4.1, yuv420p, 1920x1080]
Аудио 1: 48000Hz stereo 2304kbps [A: Japanese [jpn] (pcm_bluray, 48000 Hz, stereo, s24, 2304 kb/s)]
Аудио 2: 48000Hz stereo 2304kbps [A: Japanese [jpn] (pcm_bluray, 48000 Hz, stereo, s24, 2304 kb/s)]
</div> <div class="sp-wrap"> <div class="sp-body" title="Скриншоты"> <h3 class="sp-title">Скриншоты</h3>
Format : BDAV
Format/Info : Blu-ray Video
File size : 9.22 GiB
Duration : 29 min 54 s
Overall bit rate mode : Variable
Overall bit rate : 44.1 Mb/s
Maximum Overall bit rate : 48.0 Mb/s

Video
ID : 4113 (0x1011)
Menu ID : 1 (0x1)
Format : AVC
Format/Info : Advanced Video Codec
Format profile : [email protected]
Format settings : CABAC / 4 Ref Frames
Format settings, CABAC : Yes
Format settings, Reference fra : 4 frames
Codec ID : 27
Duration : 29 min 54 s
Bit rate mode : Variable
Bit rate : 38.0 Mb/s
Width : 1 920 pixels
Height : 1 080 pixels
Display aspect ratio : 16:9
Frame rate : 24.000 FPS
Color space : YUV
Chroma subsampling : 4:2:0
Bit depth : 8 bits
Scan type : Progressive
Bits/(Pixel*Frame) : 0.764
Stream size : 7.89 GiB (86%)

Audio #1
ID : 4352 (0x1100)
Menu ID : 1 (0x1)
Format : PCM
Format settings : Big / Signed
Muxing mode : Blu-ray
Codec ID : 128
Duration : 29 min 54 s
Bit rate mode : Constant
Bit rate : 2 304 kb/s
Channel(s) : 2 channels
Channel layout : L R
Sampling rate : 48.0 kHz
Bit depth : 24 bits
Stream size : 493 MiB (5%)

Audio #2
ID : 4353 (0x1101)
Menu ID : 1 (0x1)
Format : PCM
Format settings : Big / Signed
Muxing mode : Blu-ray
Codec ID : 128
Duration : 29 min 54 s
Bit rate mode : Constant
Bit rate : 2 304 kb/s
Channel(s) : 2 channels
Channel layout : L R
Sampling rate : 48.0 kHz
Bit depth : 24 bits
Stream size : 493 MiB (5%)
</div>


Внимание! AdBlock блокирует показ скриншотов, все вопросы к разработчикам )))
Трекер:  [ 08-Авг-2022 06:02 ]

  

Скачать .torrent

Размер .torrent файла 283 KB


Размер: 55.31 GB
Хэш (hash) релиза: ed9050c64dede82d08eb2aa6f91c3486027bfae1

Торренты, похожие на Eroge! H mo Game mo Kaihatsu Zanmai Порноигры! С головой — и в секс, и в разработку! скачать торрент

Форум Название Автор Размер S L Добавлен
Хентай | С цензурой ·· Eroge! H mo Game mo Kaihatsu Zanmai / Порноигры! С головой — и в секс, и в разработку! (Matano Ryuuzou, Collaboration Works) (ep. 1-4 of 4) [cen] [2011 г., Big tits, Tiny tits, Footjob, Milk, Oral sex, Titsjob, X-Ray, Comedy, Harem, 4x DVD5] [jap] Galfimbul 1576088262414.68 GB 1 1 1391519552

16:12

4-Фев-14

Еще никто не оставлял запись к записи скачать торрент Eroge! H mo Game mo Kaihatsu Zanmai Порноигры! С головой — и в секс, и в разработку! . Будь первым!

!Обратная связь