Скачать порно через торрент Call Girls Deluxe Call girls de luxe UnionPeer.org бесплатно онлайн HD качество

Скачать новое порно 2015, 2014 новинки через торрент UnionPeer.org

Порно торрент бесплатно ЮнионПир.орг

Статистика раздачи
Размер:  2.28 GB   |    Зарегистрирован:  1 год 5 месяцев   |    .torrent скачан:  1021 раз   |   

Пиры будут получены при скачивании

Качают:  1  
   
 
Автор Сообщение

Galfimbul

avatar Galfimbul


Call Girls Deluxe / Call girls de luxe / Роскошные Девочки Из Эскорта
Год выпуска: 2004
Страна: France.
Жанр: Feature, Foreign
Продолжительность: 1 hrs. 32 mins.
Перевод: Отсутствует.
Русские субтитры: нет.
Режиссер: Alain Payet
Студия: Marc Dorcel
В ролях: Angelika, Attila Tristan, Claudia Ferrari, Conny Dachs, Daniella Schiffer, Jane Darling, Laura Angel, Layla Famila, Philippe Jean, Robby Blake, Tony Carrera
Описание: From the yacht to a luxurious estate, these beauties are eager to provide their services. With perks like these it''s always a pleasure to go to work.
Доп. информация: http://www.adultdvdempire.com/622036/call-girls-del...porn-movies.html
Качество: Upscale
Формат: MKV
Видео кодек: HEVC h265 10 bits
Аудио кодек: AAC LC
Видео: 1 704 x960,Display aspect ratio: 16:9 , Frame rate 59.940 FPS
,Bit rate :3 451 kb/s
Аудио: 48 kHz,AAC LC, 2 ch, ~96.0 kb/s [spoiler="MediaInfo"] Call_Girls_de_Luxe.mkv
Format : Matroska
Format version : Version 4
File size : 2.28 GiB
Duration : 1 h 31 min
Overall bit rate : 3 552 kb/s
Encoded date : UTC 2022-09-14 19:41:27
Writing application : mkvmerge v56.1.0 (''My Friend'') 64-bit
Writing library : libebml v1.4.2 + libmatroska v1.6.4

Video
ID : 1
Format : HEVC
Format/Info : High Efficiency Video Coding
Format profile : Main [email protected]@Main
Codec ID : V_MPEGH/ISO/HEVC
Duration : 1 h 31 min
Bit rate : 3 451 kb/s
Width : 1 704 pixels
Height : 960 pixels
Display aspect ratio : 16:9
Frame rate mode : Constant
Frame rate : 59.940 (60000/1001) FPS
Color space : YUV
Chroma subsampling : 4:2:0
Bit depth : 10 bits
Bits/(Pixel*Frame) : 0.035
Stream size : 2.21 GiB (97%)
Default : Yes
Forced : No

Audio
ID : 2
Format : AAC LC
Format/Info : Advanced Audio Codec Low Complexity
Codec ID : A_AAC-2
Duration : 1 h 31 min
Bit rate : 96.0 kb/s
Channel(s) : 2 channels
Channel layout : L R
Sampling rate : 48.0 kHz
Frame rate : 46.875 FPS (1024 SPF)
Compression mode : Lossy
Stream size : 63.2 MiB (3%)
Language : Russian
Default : No

Внимание! AdBlock блокирует показ скриншотов, все вопросы к разработчикам )))
Трекер:  [ 15-Сен-2022 21:10 ]

  

Скачать .torrent

Размер .torrent файла 11 KB


Размер: 2.28 GB
Хэш (hash) релиза: e2774daa73fce61f3468c37360d0a0c9878fc777

Еще никто не оставлял запись к записи скачать торрент Call Girls Deluxe Call girls de luxe . Будь первым!

!Обратная связь