Скачать порно через торрент Anal Debauchery Анальный разврат UnionPeer.org бесплатно онлайн HD качество

Скачать новое порно 2015, 2014 новинки через торрент UnionPeer.org

Порно торрент бесплатно ЮнионПир.орг

Статистика раздачи
Размер:  2.25 GB   |    Зарегистрирован:  1 год 4 месяца   |    .torrent скачан:  477 раз   |   

Пиры будут получены при скачивании

   
 
Автор Сообщение

Galfimbul

avatar Galfimbul


Anal Debauchery / Анальный разврат Год производства: 2009 г.
Жанр: Compilation, Anal, Gonzo
Продолжительность: 03:52:31 + 01:01:30
Язык: Английский

Студия: Harmony Films
Режиссер: Gazzman
Страна: United Kingdom

В ролях: Sharka Blue, ElleBrook & Isabel Ice, McKenzie Lee, Alicia Rhodes & Teena Fine, Dora Venter, Taylor & Elizabeth, Lyla Lei, Alicia Rodes, Sara & Sharka Blue, Ashley Long

Описание: Anal Debauchery is anal fucking at its very best! Taking a selection of some of Harmony's most depraved hard fucking buggery scenes, they have produced one hell of a two dvd compilation for your viewing pleasure. Blonde cutie Sharka Blue kicks off this rumptastic flick as she gets lessons in how to take several toys up her tight ass. Soon Sharka is getting a pounding she won't forget, she rides her man's cock hard and fast, crying out with pleasure as the stud empties his love juices over her pretty face. There are ten great scenes in total, taken from Young Harlots In London, Maison Erotique, Slam It In Rough, The Couch, Kinky Bitch, Katja Kassin's Fuck Me, Roxy Jezel's Fuck Me, Belladonna's Fuck Me and Slam It In Every Hole. This is an anal fuck fest you'll want to watch again and again. Cast: Sharka Blue, Elle Brook, Isabel Ice, McKenzie Lee, Alicia Rhodes, Dora Venter, Taylor Morgan, Elizabeth Michelle Lawrence, Lyla Lie, Teena Fine, Ashley Long, Sarah, Others

Качество видео: DVDRip
Формат видео: AVI
Видео кодек: XviD
Аудио кодек: MP3
Видео: Dolby AC3 48000Hz stereo 192kbps
Аудио: DivX 5 720x404 29.97fps
Format : AVI
Format/Info : Audio Video Interleave
File size : 843 MiB
Duration : 1h 52mn
Overall bit rate : 1 044 Kbps
Writing library : VirtualDub build 24442/release

Video
ID : 0
Format : MPEG-4 Visual
Format settings, BVOP : Yes
Format settings, QPel : No
Format settings, GMC : No warppoints
Format settings, Matrix : Default (H.263)
Muxing mode : Packed bitstream
Codec ID : DX50
Codec ID/Hint : DivX 5
Duration : 1h 52mn
Bit rate : 840 Kbps
Width : 720 pixels
Height : 404 pixels
Display aspect ratio : 16:9
Frame rate : 29.970 fps
Color space : YUV
Chroma subsampling : 4:2:0
Bit depth : 8 bits
Scan type : Progressive
Bits/(Pixel*Frame) : 0.096
Stream size : 678 MiB (80%)
Writing library : DivX 3330

Audio
ID : 1
Format : AC-3
Format/Info : Audio Coding 3
Mode extension : CM (complete main)
Codec ID : 2000
Duration : 1h 52mn
Bit rate mode : Constant
Bit rate : 192 Kbps
Channel(s) : 2 channels
Channel positions : Front: L R
Sampling rate : 48.0 KHz
Stream size : 155 MiB (18%)
Alignment : Split accross interleaves
Interleave, duration : 33 ms (1.00 video frame)
Interleave, preload duration : 500 ms


Внимание! AdBlock блокирует показ скриншотов, все вопросы к разработчикам )))
Трекер:  [ 31-Окт-2022 18:16 ]

  

Скачать .torrent

Размер .torrent файла 12 KB


Размер: 2.25 GB
Хэш (hash) релиза: a002c90d0adffdcd107b4a0d781feab27cd897ba

Еще никто не оставлял запись к записи скачать торрент Anal Debauchery Анальный разврат . Будь первым!

!Обратная связь