Скачать порно через торрент Cum shot starlets | Кончаем на старлеток UnionPeer.org бесплатно онлайн HD качество

Скачать новое порно 2015, 2014 новинки через торрент UnionPeer.org

Порно торрент бесплатно ЮнионПир.орг

Статистика раздачи
Размер:  1.8 GB   |    Зарегистрирован:  1 год 2 месяца   |    .torrent скачан:  1107 раз   |   
Раздают:  1  
 

Скачать Cum shot starlets | Кончаем на старлеток (Odyssey)[2002 г.,Blowjob Cumshot Gonzo P.O.V., DVDRip, Anita Blonde , Anita Dark , Jill Kelly , Jessica Drake , Jewel De'Nyle ] [Upscale HEVC ] через torrent

 
 
Автор Сообщение

Galfimbul

avatar Galfimbul


Cum shot starlets | Кончаем на старлеток

Год выпуска: 2002
Страна: USA
Жанр: Blowjob Cumshot Gonzo P.O.V.
Продолжительность: 1ч 40м
Перевод: Не требуется
Студия: Odyssey

В ролях: Alexis, Angel, Anita Blonde, Anita Dark, Ariel, Avalon, Bridgette Belle, Brooke Lane, Charmane Star, Claudia, Dalia, Elinor Gasset, Goldie McHawn, Harmony Grant, Jeanie Rivers, Jessica Drake, Jewel De''Nyle, Jill Kelly, Katie June, Katja Kean, Kelly O''Rion (as Kelly Orion), Leanna Heart, Leanni Lei, Lexi Erickson, Lori Michaels, Loureen Kiss, Margo Stevens, McKayla, Nadia Foster, Nici Sterling, Nikki Anderson, Raylene, Shandra Lynn, Shay Sweet, Silvia Saint, Sky, Tawny Roberts, Tera Patrick, Tina Thomas, Billy Glyde, Bobby Vitale, Chuck Martino, Csoky, Jake Steed, Lee Stone, Marc Davis, Nacho Vidal, Peter North, Rick Patrick, Steve Drake, Ted Hunter, Vince Voyeur

Описание: In your hands you''re holding the most stimulating, visually stunning array of blow-job footage ever assembled. Every one of the 44 cocksuckers here is gorgeous beauty with a comely face. And each of the studs packs the equipment to make the girls'' pussies wet and their mouths water. Forty wet, lucious blow-job scenes climax with dolls'' faces slathered in semen... and that''s why these 45 succulent cum facials have been hand-picked from the producer''s personal collection

Промт: В ваших руках Вы считаете большинство стимулирования, визуально ошеломляя множество длины в футах оральной стимуляции полового члена когда-либо собранным. Каждые из 44 cocksuckers здесь - великолепная красота с миловидным лицом. И каждый из гвоздиков упаковывает оборудование, чтобы сделать кисок девочек влажными и их воду ртов. Сорок влажный, lucious кульминационный момент сцен оральной стимуляции полового члена с лицами кукол slathered в сперме ... и именно поэтому эти 45, сочные включая уходами за лицом были подобраны от личного собрания производителя

Качество видео: Upscale
Формат видео:MKV
Видео кодек: HEVC h265 10 bits
Аудио кодек: AAC LC
Видео: HEVC h265 10 bits,1 152x864 (4:3), 59.940 fps, 2 868 kb/s
Аудио: 48 kHz, A_AAC-2, 2/0 (L,R) ch, 96.0 kb/s [spoiler="MediaInfo"] Cum Shot Starlets\Cum Shot Starlets.mkv
Format : Matroska
Format version : Version 4
File size : 1.79 GiB
Duration : 1 h 26 min
Overall bit rate : 2 969 kb/s
Encoded date : UTC 2022-12-22 15:12:41
Writing application : mkvmerge v72.0.0 (''Minuano (Six-eight)'') 64-bit
Writing library : libebml v1.4.4 + libmatroska v1.7.1

Video
ID : 1
Format : HEVC
Format/Info : High Efficiency Video Coding
Format profile : Main 10@L5@Main
Codec ID : V_MPEGH/ISO/HEVC
Duration : 1 h 26 min
Bit rate : 2 868 kb/s
Width : 1 152 pixels
Height : 864 pixels
Display aspect ratio : 4:3
Frame rate mode : Constant
Frame rate : 59.940 (60000/1001) FPS
Color space : YUV
Chroma subsampling : 4:2:0
Bit depth : 10 bits
Bits/(Pixel*Frame) : 0.048
Stream size : 1.73 GiB (97%)
Default : Yes
Forced : No

Audio
ID : 2
Format : AAC LC
Format/Info : Advanced Audio Codec Low Complexity
Codec ID : A_AAC-2
Duration : 1 h 26 min
Bit rate : 96.0 kb/s
Channel(s) : 2 channels
Channel layout : L R
Sampling rate : 48.0 kHz
Frame rate : 46.875 FPS (1024 SPF)
Compression mode : Lossy
Stream size : 59.6 MiB (3%)
Default : Yes

Внимание! AdBlock блокирует показ скриншотов, все вопросы к разработчикам )))
Трекер:  [ 26-Дек-2022 15:20 ]

  

Скачать .torrent

Размер .torrent файла 19 KB


Размер: 1.8 GB
Хэш (hash) релиза: a86cec819136d4454590cd74baa694247b7c7869

Еще никто не оставлял запись к записи скачать торрент Cum shot starlets | Кончаем на старлеток . Будь первым!

!Обратная связь