Скачать порно через торрент Oral Deluxe Anthology Роскошная антология минетов UnionPeer.org бесплатно онлайн HD качество

Скачать новое порно 2015, 2014 новинки через торрент UnionPeer.org

Порно торрент бесплатно ЮнионПир.орг

Статистика раздачи
Размер:  4.95 GB   |    Зарегистрирован:  1 год 2 месяца   |    .torrent скачан:  1139 раз   |   

Пиры будут получены при скачивании

   
 
Автор Сообщение

Galfimbul

avatar Galfimbul


Oral Deluxe Anthology / Роскошная антология минетов

Год производства: 2007
Страна: France
Жанр: Oral, Compolation
Продолжительность: 03:18:52
Язык: Français

Режиссеры: Alain Payet, Herve Bodilis, Marc Dorcel, Ovidie, Angela Tiger, Francois Regis, Giancarlo Bini, Jean Yves Le Castel
Студия: Video Marc Dorcel

В ролях:
Silvia Saint, Yasmine, Anita Dark, Katsuni, Tiffany Hopkins, Anita Blond, Laura Angel, Lucy Love, Sharka Blue, Nina Roberts, Ovidie, Melanie Coste, Oksana, Draghixa, Laure Sinclair and other.

Описание:
Отрывки из более чем 45 наименований, великолепно снятых за последние двадцать лет, заставляют вас стать свидетелем почти 100 минетов, совершенных с непритворной жадностью самой красивой и самой пылкой из «порочных малышек», которые, достигнув своих целей, упиваются ликер любви, который наполняет их рты и заливает их лица...

Подборка из 150 лучших сцен с минетами, взятых из обширного каталога Марка Дорселя, объединяет более 7 часов экстаза! Самые великолепные и жадные звезды, которые появлялись в каждом крупнобюджетном фильме Марка Дорселя за последние 20 лет! Бери билет и отправляйся в путешествие по антологии минетов! ОРАЛЬНАЯ АНТОЛОГИЯ: захватывающая часть порнографии.

Качество видео: Upscale
Формат видео:MKV
Видео кодек: HEVC h265 10 bits
Аудио кодек: AAC LC
Видео: HEVC h265 10 bits,1 408x768 (1.85:1), 59.940 fps, 3 002 kb/s
Аудио: 48 kHz, A_AAC-2, 2/0 (L,R) ch, 96.0 kb/s [spoiler="MediaInfo"] Oral Deluxe Anthology .mkv
Format : Matroska
Format version : Version 4
File size : 4.31 GiB
Duration : 3 h 18 min
Overall bit rate : 3 103 kb/s
Encoded date : UTC 2022-12-18 14:12:52
Writing application : mkvmerge v72.0.0 (''Minuano (Six-eight)'') 64-bit
Writing library : libebml v1.4.4 + libmatroska v1.7.1

Video
ID : 1
Format : HEVC
Format/Info : High Efficiency Video Coding
Format profile : Main 10@L4@Main
Codec ID : V_MPEGH/ISO/HEVC
Duration : 3 h 18 min
Bit rate : 3 002 kb/s
Width : 1 408 pixels
Height : 768 pixels
Display aspect ratio : 1.85:1
Frame rate mode : Constant
Frame rate : 59.940 (60000/1001) FPS
Color space : YUV
Chroma subsampling : 4:2:0
Bit depth : 10 bits
Bits/(Pixel*Frame) : 0.046
Stream size : 4.17 GiB (97%)
Writing library : x265 3.5+37+12-4e46995bc:[Windows][MSVC 1931][64 bit] 10bit
Encoding settings : cpuid=1111039 / frame-threads=4 / numa-pools=16 / wpp / no-pmode / no-pme / no-psnr / no-ssim / log-level=2 / input-csp=1 / input-res=1408x768 / interlace=0 / total-frames=715248 / level-idc=0 / high-tier=1 / uhd-bd=0 / ref=3 / no-allow-non-conformance / no-repeat-headers / annexb / no-aud / no-eob / no-eos / no-hrd / info / hash=0 / no-temporal-layers / open-gop / min-keyint=25 / keyint=250 / gop-lookahead=0 / bframes=4 / b-adapt=0 / b-pyramid / bframe-bias=0 / rc-lookahead=15 / lookahead-slices=4 / scenecut=40 / no-hist-scenecut / radl=0 / no-splice / no-intra-refresh / ctu=64 / min-cu-size=8 / no-rect / no-amp / max-tu-size=32 / tu-inter-depth=1 / tu-intra-depth=1 / limit-tu=0 / rdoq-level=0 / dynamic-rd=0.00 / no-ssim-rd / signhide / no-tskip / nr-intra=0 / nr-inter=0 / no-constrained-intra / strong-intra-smoothing / max-merge=2 / limit-refs=3 / no-limit-modes / me=1 / subme=2 / merange=57 / temporal-mvp / no-frame-dup / no-hme / weightp / no-weightb / no-analyze-src-pics / deblock=0:0 / sao / no-sao-non-deblock / rd=2 / selective-sao=4 / no-early-skip / rskip / fast-intra / no-tskip-fast / no-cu-lossless / no-b-intra / no-splitrd-skip / rdpenalty=0 / psy-rd=0.00 / psy-rdoq=0.00 / no-rd-refine / no-lossless / cbqpoffs=0 / crqpoffs=0 / rc=abr / bitrate=3000 / qcomp=0.60 / qpstep=4 / stats-write=0 / stats-read=2 / cplxblur=20.0 / qblur=0.5 / ipratio=1.40 / pbratio=1.30 / aq-mode=2 / aq-strength=0.00 / aq-bias-strength=1.00 / cutree / zone-count=0 / no-strict-cbr / qg-size=32 / no-rc-grain / qpmax=69 / qpmin=0 / no-const-vbv / sar=0 / overscan=0 / videoformat=5 / range=0 / colorprim=2 / transfer=2 / colormatrix=2 / chromaloc=0 / display-window=0 / cll=0,0 / min-luma=0 / max-luma=1023 / log2-max-poc-lsb=8 / vui-timing-info / vui-hrd-info / slices=1 / no-opt-qp-pps / no-opt-ref-list-length-pps / no-multi-pass-opt-rps / scenecut-bias=0.05 / hist-threshold=0.03 / no-opt-cu-delta-qp / no-aq-motion / no-hdr10 / no-hdr10-opt / no-dhdr10-opt / no-idr-recovery-sei / analysis-reuse-level=0 / analysis-save-reuse-level=0 / analysis-load-reuse-level=0 / scale-factor=0 / refine-intra=0 / refine-inter=0 / refine-mv=1 / refine-ctu-distortion=0 / no-limit-sao / ctu-info=0 / no-lowpass-dct / refine-analysis-type=0 / copy-pic=1 / max-ausize-factor=1.0 / no-dynamic-refine / no-single-sei / no-hevc-aq / no-svt / no-field / qp-adaptation-range=1.00 / scenecut-aware-qp=0conformance-window-offsets / right=0 / bottom=0 / decoder-max-rate=0 / no-vbv-live-multi-pass
Default : Yes
Forced : No

Audio
ID : 2
Format : AAC LC
Format/Info : Advanced Audio Codec Low Complexity
Codec ID : A_AAC-2
Duration : 3 h 18 min
Bit rate : 96.0 kb/s
Channel(s) : 2 channels
Channel layout : L R
Sampling rate : 48.0 kHz
Frame rate : 46.875 FPS (1024 SPF)
Compression mode : Lossy
Stream size : 137 MiB (3%)
Language : Russian
Default : No

Внимание! AdBlock блокирует показ скриншотов, все вопросы к разработчикам )))
Трекер:  [ 28-Дек-2022 15:50 ]

  

Скачать .torrent

Размер .torrent файла 13 KB


Размер: 4.95 GB
Хэш (hash) релиза: a2fa05a2134570f55d22af16a9b52b9cd8a71aed

Еще никто не оставлял запись к записи скачать торрент Oral Deluxe Anthology Роскошная антология минетов . Будь первым!

!Обратная связь