Скачать порно через торрент Facefuckers Лицевой трах UnionPeer.org бесплатно онлайн HD качество

Скачать новое порно 2015, 2014 новинки через торрент UnionPeer.org

Порно торрент бесплатно ЮнионПир.орг

Статистика раздачи
Размер:  2.57 GB   |    Зарегистрирован:  1 год 1 месяц   |    .torrent скачан:  526 раз   |   

Пиры будут получены при скачивании

   
 
Автор Сообщение

Galfimbul

avatar Galfimbul


Facefuckers / Лицевой трах

Год производства: 2011 г.
Страна: Германия
Жанр: Oral, BlowJobs, CumShot, Hardcore
Продолжительность: 1 h 59 min
Язык: Немецкий

Студия: MMV

В ролях: Nicci Sterling, Liza Harper, Leanna Heart, Johnni Black, Heather Hornay, Emily Jewel, Cindy Cox, Bobbi Bliss, Alyssa Allure, Alexandra Silk, Alexandra Nice, Randy Storm, Temptress

Качество видео: Upscale
Формат видео:MKV
Видео кодек: HEVC h265 10 bits
Аудио кодек: AAC LC
Видео: HEVC h265 10 bits,1 440x1 080 (4:3),59.940 fps, 2 977 kb/s
Аудио: 48 kHz, AAC LC, A_AAC-2, 2/0 (L,R) ch, 96.0 kb/s [spoiler="MediaInfo"] Facefuckers.mkv
Format : Matroska
Format version : Version 4
File size : 2.57 GiB
Duration : 1 h 59 min
Overall bit rate : 3 077 kb/s
Encoded date : UTC 2023-01-01 11:51:51
Writing application : mkvmerge v72.0.0 (''Minuano (Six-eight)'') 64-bit
Writing library : libebml v1.4.4 + libmatroska v1.7.1

Video
ID : 1
Format : HEVC
Format/Info : High Efficiency Video Coding
Format profile : Main 10@L5@Main
Codec ID : V_MPEGH/ISO/HEVC
Duration : 1 h 59 min
Bit rate : 2 977 kb/s
Width : 1 440 pixels
Height : 1 080 pixels
Display aspect ratio : 4:3
Frame rate mode : Constant
Frame rate : 59.940 (60000/1001) FPS
Color space : YUV
Chroma subsampling : 4:2:0
Bit depth : 10 bits
Bits/(Pixel*Frame) : 0.032
Stream size : 2.49 GiB (97%)
Default : Yes
Forced : No

Audio
ID : 2
Format : AAC LC
Format/Info : Advanced Audio Codec Low Complexity
Codec ID : A_AAC-2
Duration : 1 h 59 min
Bit rate : 96.0 kb/s
Channel(s) : 2 channels
Channel layout : L R
Sampling rate : 48.0 kHz
Frame rate : 46.875 FPS (1024 SPF)
Compression mode : Lossy
Stream size : 82.4 MiB (3%)
Language : Russian
Default : No

Внимание! AdBlock блокирует показ скриншотов, все вопросы к разработчикам )))
Трекер:  [ 01-Янв-2023 15:30 ]

  

Скачать .torrent

Размер .torrent файла 13 KB


Размер: 2.57 GB
Хэш (hash) релиза: 4b0186fde7ea8fc045426b3eb1793ec1ded9cb85

Еще никто не оставлял запись к записи скачать торрент Facefuckers Лицевой трах . Будь первым!

!Обратная связь