Скачать порно через торрент Private Film 27 - 28 : Gigolo 1 - 2 Жиголо 1-2 UnionPeer.org бесплатно онлайн HD качество

Скачать новое порно 2015, 2014 новинки через торрент UnionPeer.org

Порно торрент бесплатно ЮнионПир.орг

Статистика раздачи
Размер:  7.31 GB   |    Зарегистрирован:  1 год 3 месяца   |    .torrent скачан:  1096 раз   |   
Раздают:  1  
   
 
Автор Сообщение

Galfimbul

avatar Galfimbul


Private Film 27 - 28 : Gigolo 1 - 2 / Жиголо 1-2
Год выпуска: 1995
Страна: Europe
Жанр: Feature, Straight, Foreign
Продолжительность: 02:36:02
Язык: Английский, русский (профессиональный закадровый двухголосый)
Режиссер: Pierre Woodman
Студия: Private
В ролях: Gabrielle Scream, Frank Versace Tania Russof, Philippe Soine Joy Kiss, Sylvia Sopia, Jean-Pierre Armand, Yves Baillat Vivienne Clash, Philippe Soine Monique Covet, Olivia del Rio, Alain Deloin, Jean-Yves Le Castel, Richard Langin Gabrielle Scream, Laura Catwoman, Tania Russof, Alain Deloin, Jean Louis, Philou
Описание:
Господин Юбер Сандерталь, один из самых богатых людей в мире, теряет голову из-за Елены, юной модели, которая отказывается выйти за него замуж из-за того, что его жена Анаис, чистая и убежденная католичка, выступает против идеи о разводе. Столкнувшись с этой дилеммой, Сандерталь заключает контракт с Майком Стерном, знаменитым жиголо из Монако, который, чтобы избавиться от своей жены, инсценирует несчастный случай. Это триллер - восхитительный коктейль из прекрасных и роскошных девушек, замков мечты и прекрасных машин. Фильм, в котором, без сомнения, вы можете наслаждаться возвышенной красотой и жесткими сексуальными сценами.
______________________________________________________________________________________________________________________________________________________________
Год производства: 1995 г.
Страна: France
Жанр: group sex, double penetration, anal sex, sex, hardcore
Продолжительность: 02:25:12
Язык: Английский, русский
Режиссер: Pierre Woodman
Студия: Private Media Group
В ролях:Tetsuo Kurata ... Akira Uesugi Tania Russof Cathleen Raymond Joy Kiss Franck Versace Philippe Soine Richard Langin Sylvia Sopia Laura Catwoman Vivienne Clash Olivia Del Rio Monique Covet ... (as Monica Cairns) Jean-Yves Le Castel Jean-Pierre Armand Yves Baillat
Описание:
Как только лорд Сандертэйл решил, что его порочный план сработал, к нему наведывается тот самый альфонс, который начинает шантажировать лорда. Загнанный в угол, Сандертэйл соглашается перечислить два миллиона долларов. В это же время любовница лорда, возвращаясь из аэропорта, делает небольшую остановку…

Качество видео: Upscale
Формат видео:MKV
Видео кодек: HEVC h265 10 bits
Аудио кодек: AC-3
Видео: HEVC h265 10 bits,1 440x896 (16:10), 59.940 fps,2 987 kb/s 1 440x896 (16:10), 59.940 fps,2 989 kb/s
Аудио: 48 kHz,AC-3, 2/0 (L,R) ch,192 kb/s 192 kb/s [spoiler="MediaInfo"] Private Film_Gigolo 1.mkv
Format : Matroska
Format version : Version 4
File size : 3.89 GiB
Duration : 2 h 36 min
Overall bit rate : 3 567 kb/s
Encoded date : UTC 2023-02-02 11:19:01
Writing application : mkvmerge v72.0.0 (''Minuano (Six-eight)'') 64-bit
Writing library : libebml v1.4.4 + libmatroska v1.7.1

Video
ID : 1
Format : HEVC
Format/Info : High Efficiency Video Coding
Format profile : Main 10@L5@Main
Codec ID : V_MPEGH/ISO/HEVC
Duration : 2 h 36 min
Bit rate : 2 987 kb/s
Width : 1 440 pixels
Height : 896 pixels
Display aspect ratio : 16:10
Frame rate mode : Constant
Frame rate : 59.940 (60000/1001) FPS
Color space : YUV
Chroma subsampling : 4:2:0
Bit depth : 10 bits
Bits/(Pixel*Frame) : 0.039
Stream size : 3.26 GiB (84%)
Default : Yes
Forced : No
Color range : Limited
Transfer characteristics : BT.709

Audio #1
ID : 2
Format : AC-3
Format/Info : Audio Coding 3
Commercial name : Dolby Digital
Codec ID : A_AC3
Duration : 2 h 36 min
Bit rate mode : Constant
Bit rate : 192 kb/s
Channel(s) : 2 channels
Channel layout : L R
Sampling rate : 48.0 kHz
Frame rate : 31.250 FPS (1536 SPF)
Compression mode : Lossy
Stream size : 214 MiB (5%)
Language : Russian
Service kind : Complete Main
Default : Yes
Forced : Yes

Audio #2
ID : 3
Format : AC-3
Format/Info : Audio Coding 3
Commercial name : Dolby Digital
Codec ID : A_AC3
Duration : 2 h 36 min
Bit rate mode : Constant
Bit rate : 192 kb/s
Channel(s) : 2 channels
Channel layout : L R
Sampling rate : 48.0 kHz
Frame rate : 31.250 FPS (1536 SPF)
Compression mode : Lossy
Stream size : 214 MiB (5%)
Language : Russian
Service kind : Complete Main
Default : No
Forced : No

Audio #3
ID : 4
Format : AC-3
Format/Info : Audio Coding 3
Commercial name : Dolby Digital
Codec ID : A_AC3
Duration : 2 h 36 min
Bit rate mode : Constant
Bit rate : 192 kb/s
Channel(s) : 2 channels
Channel layout : L R
Sampling rate : 48.0 kHz
Frame rate : 31.250 FPS (1536 SPF)
Compression mode : Lossy
Stream size : 214 MiB (5%)
Language : English
Service kind : Complete Main
Default : No
Forced : No

Menu
00:00:00.000 : en:Chapter 1
00:07:49.502 : en:Chapter 2
00:28:24.235 : en:Chapter 3
00:53:21.731 : en:Chapter 4
01:12:26.775 : en:Chapter 5
01:33:53.127 : en:Chapter 6
02:13:15.687 : en:Chapter 7

Private Film_Gigolo 2.mkv
Format : Matroska
Format version : Version 4
File size : 3.42 GiB
Duration : 2 h 25 min
Overall bit rate : 3 375 kb/s
Encoded date : UTC 2023-01-31 17:27:40
Writing application : mkvmerge v72.0.0 (''Minuano (Six-eight)'') 64-bit
Writing library : libebml v1.4.4 + libmatroska v1.7.1

Video
ID : 1
Format : HEVC
Format/Info : High Efficiency Video Coding
Format profile : Main 10@L5@Main
Codec ID : V_MPEGH/ISO/HEVC
Duration : 2 h 25 min
Bit rate : 2 987 kb/s
Width : 1 440 pixels
Height : 896 pixels
Display aspect ratio : 16:10
Frame rate mode : Constant
Frame rate : 59.940 (60000/1001) FPS
Color space : YUV
Chroma subsampling : 4:2:0
Bit depth : 10 bits
Bits/(Pixel*Frame) : 0.039
Stream size : 3.03 GiB (89%)
Default : Yes
Forced : No

Audio #1
ID : 2
Format : AC-3
Format/Info : Audio Coding 3
Commercial name : Dolby Digital
Codec ID : A_AC3
Duration : 2 h 25 min
Bit rate mode : Constant
Bit rate : 192 kb/s
Channel(s) : 2 channels
Channel layout : L R
Sampling rate : 48.0 kHz
Frame rate : 31.250 FPS (1536 SPF)
Compression mode : Lossy
Stream size : 199 MiB (6%)
Language : Russian
Service kind : Complete Main
Default : Yes
Forced : No

Audio #2
ID : 3
Format : AC-3
Format/Info : Audio Coding 3
Commercial name : Dolby Digital
Codec ID : A_AC3
Duration : 2 h 25 min
Bit rate mode : Constant
Bit rate : 192 kb/s
Channel(s) : 2 channels
Channel layout : L R
Sampling rate : 48.0 kHz
Frame rate : 31.250 FPS (1536 SPF)
Compression mode : Lossy
Stream size : 199 MiB (6%)
Language : English
Service kind : Complete Main
Default : No

Внимание! AdBlock блокирует показ скриншотов, все вопросы к разработчикам )))

Трекер:  [ 03-Фев-2023 15:54 ]

  

Скачать .torrent

Размер .torrent файла 19 KB


Размер: 7.31 GB
Хэш (hash) релиза: ada790b2ae164c47a1ce4d1cdc44d479a6129fa4

Еще никто не оставлял запись к записи скачать торрент Private Film 27 - 28 : Gigolo 1 - 2 Жиголо 1-2 . Будь первым!

!Обратная связь