Скачать порно через торрент [chaturbate.com] UnionPeer.org бесплатно онлайн HD качество

Скачать новое порно 2015, 2014 новинки через торрент UnionPeer.org

Порно торрент бесплатно ЮнионПир.орг

Статистика раздачи
Размер:  8.24 GB   |    Зарегистрирован:  1 год 2 месяца   |    .torrent скачан:  507 раз   |   

Пиры будут получены при скачивании

   
 
Автор Сообщение

Galfimbul

avatar Galfimbul




Имя модели: Olga
Название пака: colette1w - 6 роликов (07.08.2022 - 25.08.2022)
Подсайт и сайт: chaturbate.com

Охваченный временной промежуток: 2022
Жанр: Milf, Blonde, Solo, High Heels, Hairy, Posing, Tease, Smoking, Dancing, Stripping, Masturbation, Fingering, Anal, Dildo, Sex Toys, Oil, Squirt, Orgasm, WebCam
Количество роликов: 6 роликов
Общая продолжительность: 09:10:54

Тип видео: 720p
Качество видео: WebCam
Формат видео: MP4
Видео: MPEG-4 HEVC (H265), 1280x720, 30fps, ~2027-2058 kb/s
Аудио: AAC, 48.0 kHz, 2 channels, 128 kb/s
Аудио: MP3, 44.1 kHz, 2 channels, 320 kb/s

Описание: https://chaturbate.com/colette1w/

Доп. информация: Интересное за август 2022 г. Немного сжато и лишнее время вырезано.
P.s. Третий ролик идёт без звука, хотя звуковая дорожка присутсвует. Возможно были неполадки на трансляции или просто забыла включить звук))
Так вот, чтобы небыло скучно смотреть, я добавил вторую звуковую дорожку, и вложил несколько музыкальных треков. Ничего не подгонял, просто добавил для фона. Треклист указан в 3-ем разделе скриншотов.

Предыдущие раздачи по colette1w:
1)[chaturbate.com] colette1w (02.12.2021)
2)[chaturbate.com] colette1w (08.12.2021)
3)[chaturbate.com] colette1w - 4 ролика (20.12.2021 - 01.01.2022)
4)[chaturbate.com] colette1w (25.01.2022)
5)[chaturbate.com] colette1w - 4 ролика (28.01.2022 - 02.02.2022)
6)[chaturbate.com] colette1w (03.05.2022)
7)[chaturbate.com] colette1w (27.05.2022)
8)[chaturbate.com] colette1w (27.06.2022)
9)[chaturbate.com] colette1w Blowjob and Cum - 2 ролика (16.12.2019 -17.12.2019)
10)[chaturbate.com]Olga colette1w (от Deiw_sd)
11)[chaturbate.com]colette1w - 9 роликов (07.07.2022 - 31.07.2022)
01 colette1w_2022-08-07 08-10.mp4

Format : MPEG-4
Format profile : Base Media
Codec ID : isom (isom/iso2/mp41)
File size : 3.15 GiB
Duration : 3 h 30 min
Overall bit rate mode : Variable
Overall bit rate : 2 146 kb/s
Writing application : Lavf56.15.102

Video
ID : 1
Format : HEVC
Format/Info : High Efficiency Video Coding
Format profile : [email protected]@Main
Codec ID : hev1
Codec ID/Info : High Efficiency Video Coding
Duration : 3 h 30 min
Bit rate : 2 052 kb/s
Width : 1 280 pixels
Height : 720 pixels
Display aspect ratio : 16:9
Frame rate mode : Constant
Frame rate : 30.000 FPS
Color space : YUV
Chroma subsampling : 4:2:0
Bit depth : 8 bits
Scan type : Progressive
Bits/(Pixel*Frame) : 0.074
Stream size : 3.01 GiB (96%)
Codec configuration box : hvcC

Audio
ID : 2
Format : AAC LC
Format/Info : Advanced Audio Codec Low Complexity
Codec ID : mp4a-40-2
Duration : 3 h 30 min
Bit rate mode : Variable
Bit rate : 87.4 kb/s
Maximum bit rate : 128 kb/s
Channel(s) : 2 channels
Channel layout : L R
Sampling rate : 48.0 kHz
Frame rate : 46.875 FPS (1024 SPF)
Compression mode : Lossy
Stream size : 131 MiB (4%)
Default : Yes
Alternate group : 1

02 colette1w_2022-08-13 00-27.mp4

Format : MPEG-4
Format profile : Base Media
Codec ID : isom (isom/iso2/mp41)
File size : 640 MiB
Duration : 42 min 35 s
Overall bit rate mode : Variable
Overall bit rate : 2 102 kb/s
Writing application : Lavf56.15.102

Video
ID : 1
Format : HEVC
Format/Info : High Efficiency Video Coding
Format profile : [email protected]@Main
Codec ID : hev1
Codec ID/Info : High Efficiency Video Coding
Duration : 42 min 35 s
Bit rate : 2 027 kb/s
Width : 1 280 pixels
Height : 720 pixels
Display aspect ratio : 16:9
Frame rate mode : Constant
Frame rate : 30.000 FPS
Color space : YUV
Chroma subsampling : 4:2:0
Bit depth : 8 bits
Scan type : Progressive
Bits/(Pixel*Frame) : 0.073
Stream size : 617 MiB (96%)
Codec configuration box : hvcC

Audio
ID : 2
Format : AAC LC
Format/Info : Advanced Audio Codec Low Complexity
Codec ID : mp4a-40-2
Duration : 42 min 35 s
Bit rate mode : Variable
Bit rate : 68.6 kb/s
Maximum bit rate : 128 kb/s
Channel(s) : 2 channels
Channel layout : L R
Sampling rate : 48.0 kHz
Frame rate : 46.875 FPS (1024 SPF)
Compression mode : Lossy
Stream size : 20.9 MiB (3%)
Default : Yes
Alternate group : 1

03 colette1w_2022-08-14 23-37.mp4

Format : MPEG-4
Format profile : Base Media
Codec ID : isom (isom/iso2/mp41)
File size : 552 MiB
Duration : 32 min 30 s
Overall bit rate : 2 373 kb/s
major_brand : isom
minor_version : 512
compatible_brands : isomiso2mp41
encoder : Lavf59.27.100

Video
ID : 1
Format : HEVC
Format/Info : High Efficiency Video Coding
Format profile : [email protected]@Main
Codec ID : hvc1
Codec ID/Info : High Efficiency Video Coding
Duration : 32 min 30 s
Bit rate : 2 044 kb/s
Width : 1 280 pixels
Height : 720 pixels
Display aspect ratio : 16:9
Frame rate mode : Constant
Frame rate : 30.000 FPS
Color space : YUV
Chroma subsampling : 4:2:0
Bit depth : 8 bits
Scan type : Progressive
Bits/(Pixel*Frame) : 0.074
Stream size : 475 MiB (86%)
Codec configuration box : hvcC

Audio #1
ID : 2
Format : AAC LC
Format/Info : Advanced Audio Codec Low Complexity
Codec ID : mp4a-40-2
Duration : 32 min 30 s
Source duration : 32 min 30 s
Bit rate mode : Constant
Bit rate : 3 375 b/s
Channel(s) : 2 channels
Channel layout : L R
Sampling rate : 48.0 kHz
Frame rate : 46.875 FPS (1024 SPF)
Compression mode : Lossy
Stream size : 803 KiB (0%)
Source stream size : 803 KiB (0%)
Default : Yes
Alternate group : 1

Audio #2
ID : 3
Format : MPEG Audio
Format version : Version 1
Format profile : Layer 3
Format settings : Joint stereo
Codec ID : mp4a-6B
Duration : 32 min 11 s
Source duration : 32 min 11 s
Bit rate mode : Constant
Bit rate : 320 kb/s
Channel(s) : 2 channels
Sampling rate : 44.1 kHz
Compression mode : Lossy
Stream size : 73.7 MiB (13%)
Source stream size : 73.7 MiB (13%)
Writing library : LAMEªªª‘4
Default : No
Alternate group : 1

04 colette1w_2022-08-15 07-13.mp4

Format : MPEG-4
Format profile : Base Media
Codec ID : isom (isom/iso2/mp41)
File size : 1.81 GiB
Duration : 2 h 1 min
Overall bit rate mode : Variable
Overall bit rate : 2 122 kb/s
encoder : Lavf59.27.100

Video
ID : 1
Format : HEVC
Format/Info : High Efficiency Video Coding
Format profile : [email protected]@Main
Codec ID : hvc1
Codec ID/Info : High Efficiency Video Coding
Duration : 2 h 1 min
Source duration : 2 h 1 min
Bit rate : 2 054 kb/s
Width : 1 280 pixels
Height : 720 pixels
Display aspect ratio : 16:9
Frame rate mode : Variable
Frame rate : 30.000 FPS
Minimum frame rate : 29.425 FPS
Maximum frame rate : 30.000 FPS
Color space : YUV
Chroma subsampling : 4:2:0
Bit depth : 8 bits
Scan type : Progressive
Bits/(Pixel*Frame) : 0.074
Stream size : 1.74 GiB (96%)
Source stream size : 1.74 GiB (96%)
Codec configuration box : hvcC

Audio
ID : 2
Format : AAC LC
Format/Info : Advanced Audio Codec Low Complexity
Codec ID : mp4a-40-2
Duration : 2 h 1 min
Bit rate mode : Variable
Bit rate : 68.2 kb/s
Maximum bit rate : 71.6 kb/s
Channel(s) : 2 channels
Channel layout : L R
Sampling rate : 48.0 kHz
Frame rate : 46.875 FPS (1024 SPF)
Compression mode : Lossy
Stream size : 59.5 MiB (3%)
Default : Yes
Alternate group : 1

05 colette1w_2022-08-17 14-39.mp4

Format : MPEG-4
Format profile : Base Media
Codec ID : isom (isom/iso2/mp41)
File size : 704 MiB
Duration : 46 min 30 s
Overall bit rate mode : Variable
Overall bit rate : 2 117 kb/s
Writing application : Lavf56.15.102

Video
ID : 1
Format : HEVC
Format/Info : High Efficiency Video Coding
Format profile : [email protected]@Main
Codec ID : hev1
Codec ID/Info : High Efficiency Video Coding
Duration : 46 min 30 s
Bit rate : 2 054 kb/s
Width : 1 280 pixels
Height : 720 pixels
Display aspect ratio : 16:9
Frame rate mode : Constant
Frame rate : 30.000 FPS
Color space : YUV
Chroma subsampling : 4:2:0
Bit depth : 8 bits
Scan type : Progressive
Bits/(Pixel*Frame) : 0.074
Stream size : 683 MiB (97%)
Codec configuration box : hvcC

Audio
ID : 2
Format : AAC LC
Format/Info : Advanced Audio Codec Low Complexity
Codec ID : mp4a-40-2
Duration : 46 min 30 s
Bit rate mode : Variable
Bit rate : 56.1 kb/s
Maximum bit rate : 128 kb/s
Channel(s) : 2 channels
Channel layout : L R
Sampling rate : 48.0 kHz
Frame rate : 46.875 FPS (1024 SPF)
Compression mode : Lossy
Stream size : 18.7 MiB (3%)
Default : Yes
Alternate group : 1

06 colette1w_2022-08-25 10-58.mp4

Format : MPEG-4
Format profile : Base Media
Codec ID : isom (isom/iso2/mp41)
File size : 1.43 GiB
Duration : 1 h 37 min
Overall bit rate mode : Variable
Overall bit rate : 2 112 kb/s
Writing application : Lavf56.15.102

Video
ID : 1
Format : HEVC
Format/Info : High Efficiency Video Coding
Format profile : [email protected]@Main
Codec ID : hev1
Codec ID/Info : High Efficiency Video Coding
Duration : 1 h 37 min
Bit rate : 2 058 kb/s
Width : 1 280 pixels
Height : 720 pixels
Display aspect ratio : 16:9
Frame rate mode : Constant
Frame rate : 30.000 FPS
Color space : YUV
Chroma subsampling : 4:2:0
Bit depth : 8 bits
Scan type : Progressive
Bits/(Pixel*Frame) : 0.074
Stream size : 1.40 GiB (97%)
Codec configuration box : hvcC

Audio
ID : 2
Format : AAC LC
Format/Info : Advanced Audio Codec Low Complexity
Codec ID : mp4a-40-2
Duration : 1 h 37 min
Bit rate mode : Variable
Bit rate : 48.0 kb/s
Maximum bit rate : 128 kb/s
Channel(s) : 2 channels
Channel layout : L R
Sampling rate : 48.0 kHz
Frame rate : 46.875 FPS (1024 SPF)
Compression mode : Lossy
Stream size : 32.9 MiB (2%)
Default : Yes
Alternate group : 1


Внимание! AdBlock блокирует показ скриншотов, все вопросы к разработчикам )))

Трекер:  [ 03-Апр-2023 13:30 ]

  

Скачать .torrent

Размер .torrent файла 21 KB


Размер: 8.24 GB
Хэш (hash) релиза: 4c5da15056211b77ada967ec765657ac3c92be52

Торренты, похожие на [chaturbate.com] скачать торрент

Форум Название Автор Размер S L Добавлен
Паки сайтрипов (SD Video) / SiteRip's Packs (SD Video) ·%· [Chaturbate.com/Myfreecams/PornHub.com.com] Сборник красивых девушек Chaturbate.com/Myfreecams.com 70 роликов (Part 11) [2014 - 2018, Webcam,Amateur,Teen,Group sex,Big natural tits,Boobs,Big ass,Latina,Dildo,Toys,Anal play,All sex,Blowjob,Deep Throat Galfimbul 3171493744729.54 GB 0 0 1535662925

00:02

31-Авг-18

Паки сайтрипов (SD Video) / SiteRip's Packs (SD Video) ·· [Chaturbate.com/Myfreecams/PornHub.com] Сборник красивых девушек Chaturbate.com/Myfreecams/PornHub.com 70 роликов (Part 15) [2019-2020, Webcam,Amateur,Big natural tits,Boobs,Big ass,Latina,Dildo,Toys,All sex,Blowjob,Hardcore,Anal,Masturbation,Oil,Tit Galfimbul 117882424253109.79 GB 0 1 1606829411

16:30

1-Дек-20

Паки сайтрипов (SD Video) / SiteRip's Packs (SD Video) ·%· [Chaturbate.com/Myfreecams/Manyvids.com] Сборник красивых девушек Chaturbate.com/Myfreecams.com 75 роликов [2017 - 2019, Webcam,Amateur,Big natural tits,Boobs,Big ass,Latina,Dildo,Toys,All sex,Blowjob,Hardcore,Anal play,Masturbation,Oil,Titjob.] Galfimbul 4894442251945.58 GB 0 0 1574721609

01:40

26-Ноя-19

Паки сайтрипов (SD Video) / SiteRip's Packs (SD Video) ·%· [Chaturbate.com/Myfreecams] Сборник красивых девушек Chaturbate.com/Myfreecams.com 95 роликов (Part 12) [2018-2019, Webcam,Amateur,Big natural tits,Boobs,Big ass,Latina,Dildo,Toys,All sex,Blowjob,Anal play,Masturbation,Oil,Titjob.] Galfimbul 6594740231561.42 GB 3 0 1559938815

23:20

7-Июн-19

Паки сайтрипов (SD Video) / SiteRip's Packs (SD Video) ·%· [Chaturbate.com/Myfreecams.com] Молодые - стройные - красивые. Chaturbate.com/Myfreecams.com Pretty Girls. 100 роликов [2018, Webcam,Amateur,Teen,Big natural tits,Big ass,Anal play,Dildo,Masturbation.] Galfimbul 85705732587.98 GB 0 0 1532637626

23:40

26-Июл-18

Паки сайтрипов (SD Video) / SiteRip's Packs (SD Video) ·· [Chaturbate.com/Myfreecams.com] Сборник красивых девушек Chaturbate.com/Myfreecams.com 60 роликов (Part 10) [2017 - 2018, Webcam,Amateur,Teen,Group sex,Big natural tits,Boobs,Big ass,Latina,Dildo,Toys,Anal play,All sex,BlowjobDeep Throat,Cum shots.] Galfimbul 3595081281033.48 GB 0 0 1525813327

00:02

9-Май-18

Паки сайтрипов (SD Video) / SiteRip's Packs (SD Video) ·· [Chaturbate.com/Myfreecams.com] Сборник красивых девушек Chaturbate.com/Myfreecams.com 95 роликов (Part 9) [2014 - 2018, Webcam,Amateur,Teen,Group sex,Big natural tits,Boobs,Big ass,Latina,Dildo,Anal play,All sex,Blowjob,Deep Throat,Cum shots,Titjob] Galfimbul 4774105490744.46 GB 0 0 1523303676

22:54

9-Апр-18

Паки сайтрипов (SD Video) / SiteRip's Packs (SD Video) ·· [Chaturbate.com/Myfreecams.com] Сборник красивых девушек Chaturbate.com/Myfreecams.com 120 роликов (Part 8) [2013 - 2017,Webcam,Amateur,Teen,Big tits,Boobs,Big ass,Latina,Dildo,Toys,Anal play,All sex,Blowjob,Deep Throat,Cum shots,Masturbation,Titjob] Galfimbul 3776841093835.17 GB 0 0 1514135432

20:10

24-Дек-17

Паки сайтрипов (SD Video) / SiteRip's Packs (SD Video) ·· [Chaturbate.com/Myfreecams.com] Сборник красивых девушек Chaturbate.com/Myfreecams.com 110 роликов (Part 7) [2013-2017,Webcam,Amateur,Anal,Big natural tits,Boobs,Big ass,Latina,Dildo,Toys,Anal play,All sex,Blowjob,Cum shots,Masturbation,Titjob,Tatto] Galfimbul 2792238007226 GB 2 0 1505682102

00:01

18-Сен-17

Паки сайтрипов (SD Video) / SiteRip's Packs (SD Video) ·· [Chaturbate.com / Myfreecams.com] Сборник красивых девушек Chaturbate.com/Myfreecams.com 55 роликов (Part 3) [2012-2017, Webcam,Amateur,Big natural tits,Boobs,Big ass,Latina,Dildo,Toys,Anal play,All sex,Blowjob,Cum shots,Masturbation,Oil,Titjob.] Galfimbul 1468016766813.67 GB 0 0 1497041493

23:51

9-Июн-17

Паки сайтрипов (SD Video) / SiteRip's Packs (SD Video) ·· [Chaturbate.com / Myfreecams.com] Сборник красивых девушек Chaturbate.com/Myfreecams.com 105 роликов (Part 5) [2013-2017, Webcam,Amateur,Teen18+,Pregnant,Big natural tits,Boobs,Big ass,Dildo,Toys,Anal play,Masturbation,Oil,Titjob.] Galfimbul 2237562597420.84 GB 0 0 1494434468

19:41

10-Май-17

Паки сайтрипов (SD Video) / SiteRip's Packs (SD Video) ·· [Chaturbate.com / Myfreecams.com] Сборник красивых девушек Chaturbate.com/Myfreecams.com 46 роликов (Part 4) [2013-2017, Webcam,Amateur,Big natural tits,Boobs,Big ass,Dildo,Toys,Anal play,Masturbation,Oil,Titjob.] Galfimbul 105530678159.83 GB 2 0 1489007411

00:10

9-Мар-17

Паки сайтрипов (SD Video) / SiteRip's Packs (SD Video) ·· [Chaturbate.com / Myfreecams.com] Сборник красивейших девушек Chaturbate.com/Myfreecams.com 50 роликов (Part 2) [2013-2017, Webcam,Amateur,Big natural tits,Boobs,Latina,Dildo,Toys,Anal play,All sex,Blowjob,Cum shots,Masturbation,Oil,Titjob.] Galfimbul 1294681090812.06 GB 0 0 1484504142

21:15

15-Янв-17

Порноролики Разное / Clips (various) ·?· Модели chaturbate.com - [chaturbate.com] Подборка девушек в Latex, Pvc, Vinyl #4 [2023,Latex, Rubber, Latex Catsuits & Leggings, Fetish, Webcam, Anal, Solo, Masturbation, Feet, Fetish, Glamour, Lingerie, Nylon, Pantyhose, Squirting,1080p] (4) [20 Galfimbul 4909126108145.72 GB 0 3 1674643692

13:48

25-Янв-23

Русские Порноролики Разное / Russian Clips (various) ·· [CHATURBATE.COM] MEGANMEOW 22.11.23 - [CHATURBATE.COM] MEGANMEOW 22.11.23 [Creampie, Dildo, Latex, Russian Girls, Softcore, Solo, Teen, 1080p, WebCam] Galfimbul 86750855228.08 GB 1 0 1669232539

22:42

23-Ноя-22

Русские Порноролики Разное / Russian Clips (various) ·· [CHATURBATE.COM] SANSA SATRK 22.11.20 - [CHATURBATE.COM] SANSA STARK 22.11.20 [Amateur, Dildo, Natural Tits, Russian Girls, Teen, 1080p, WebCam] Galfimbul 53146402084.95 GB 2 0 1669230728

22:12

23-Ноя-22

Русские Порноролики Разное / Russian Clips (various) ·· [CHATURBATE.COM] INDICA 22.11.23 - [CHATURBATE.COM] INDICA 22.11.23 [Amateur, Big Ass, Big Tits, Natural Tits, Teen, 1080p, WebCam] Galfimbul 34718769923.23 GB 0 1 1669230129

22:02

23-Ноя-22

Русские Порноролики Разное / Russian Clips (various) ·· [chaturbate.com] Timeless paradox, Bars 377, Aliceparadise [chaturbate.com] Timeless paradox (Bars 377, Aliceparadise) show on 23.09.2022 [2022-09-23, anal, dildo, cosplay, tits, glasses, WebCam] Galfimbul 10681547601019 MB 0 0 1664712130

15:02

2-Окт-22

Русские Порноролики Разное / Russian Clips (various) ·· [Chaturbate.com] [Chaturbate.com] college gangbang [2020, Amateur, Foursome, Group sex, Doggystyle, Blowjob, Cum shots, SiteRip] Galfimbul 235512836225 MB 0 0 1647357152

18:12

15-Мар-22

Русские Порноролики Разное / Russian Clips (various) ·· [chaturbate.com] moniqueass [chaturbate.com] moniqueass 21.09.26 [2021-09-26, latina, ass, big tits, toys, solo, amateur, 720p, WebCam] Galfimbul 68230540146.35 GB 0 2 1632750127

16:42

27-Сен-21

Еще никто не оставлял запись к записи скачать торрент [chaturbate.com] . Будь первым!

!Обратная связь