Скачать порно через торрент "Jill And Silvia Exposed" "Джил и Сильвия без одежды" UnionPeer.org бесплатно онлайн HD качество

Скачать новое порно 2015, 2014 новинки через торрент UnionPeer.org

Порно торрент бесплатно ЮнионПир.орг

Статистика раздачи
Размер:  679 MB   |    Зарегистрирован:  12 лет   |    .torrent скачан:  1084 раза   |   
Раздают:  1  
 

Скачать "Jill And Silvia Exposed" / "Джил и Сильвия без одежды" (Джон Юма, Jill Kelly Productions) [2002 г., All sex, masturbation, toys] [rus] (Silvia Saint, Jill Kelly) через torrent

 
 
Автор Сообщение

Galfimbul

avatar Galfimbul


"Jill And Silvia Exposed" / "Джил и Сильвия без одежды"(All sex, masturbation, toys)

Год производства: 2002 г.
Страна: США
Жанр: эротика, секс, лесби, мастурбация
Продолжительность: 1:10:07

Режиссер: Джон Юма
Студия: Jill Kelly Productions

Язык: Русский
В ролях: Дэйл ДаБон, Иван Стоун, Ян Дэниэлс, Джилл Келли, Сильвия Сейнт, Майкл Дж. Кокс и другие.

Описание: Сотрите границы дозволенного, здесь нет правил поведения. Максимум удовольствия, максимум секса!

Моя первая раздача!

Видео: mpeg4
General
Complete name :Kino.avi
Format : AVI
Format/Info : Audio Video Interleave
File size : 679 MiB
Duration : 1h 10mn
Overall bit rate : 1 353 Kbps
Writing application : Nandub v0.28
Writing library : Nandub build 1757/release
Video #0
ID : 0
Format : MPEG-4 Visual
Format settings, BVOP : Yes
Format settings, QPel : No
Format settings, GMC : No warppoints
Format settings, Matrix : Default (H.263)
Codec ID : DIVX
Codec ID/Info : Project Mayo
Codec ID/Hint : DivX 4
Duration : 1h 10mn
Bit rate : 1 221 Kbps
Width : 512 pixels
Height : 416 pixels
Display aspect ratio : 5:4
Frame rate : 25.000 fps
Color space : YUV
Chroma subsampling : 4:2:0
Bit depth : 8 bits
Scan type : Progressive
Bits/(Pixel*Frame) : 0.229
Stream size : 612 MiB (90%)
Audio #1
ID : 1
Format : MPEG Audio
Format version : Version 1
Format profile : Layer 3
Codec ID : 55
Codec ID/Hint : MP3
Duration : 1h 10mn
Bit rate mode : Variable
Bit rate : 120 Kbps
Nominal bit rate : 128 Kbps
Channel(s) : 2 channels
Sampling rate : 44.1 KHz
Stream size : 60.1 MiB (9%)
Alignment : Aligned on interleaves
Interleave, duration : 26 ms (0.65 video frame)
Interleave, preload duration : 498 ms
Writing library : LAME3.93
Encoding settings : -m s -V 4 -q 2 -lowpass 13.8 --abr 128


Внимание! AdBlock блокирует показ скриншотов, все вопросы к разработчикам )))
Трекер:  [ 05-Мар-2012 10:03 ]

  

Скачать .torrent

Размер .torrent файла 14 KB


Размер: 679 MB
Хэш (hash) релиза: 51ad472d80d7ffe410a24c096504cc38059aba84

Еще никто не оставлял запись к записи скачать торрент "Jill And Silvia Exposed" "Джил и Сильвия без одежды" . Будь первым!

!Обратная связь