Скачать порно через торрент Sweet RevengeСладкая месть UnionPeer.org бесплатно онлайн HD качество

Скачать новое порно 2015, 2014 новинки через торрент UnionPeer.org

Порно торрент бесплатно ЮнионПир.орг

Статистика раздачи
Размер:  1.06 GB   |    Зарегистрирован:  12 лет   |    .torrent скачан:  723 раза   |   
Раздают:  1  
 

Скачать Sweet Revenge/Сладкая месть (Toni English / Vivid) (Kaitlyn Ashley,Melissa Hill) [1996 г., Feature, Straight., DVDRip] через torrent

 
 
Автор Сообщение

Galfimbul

avatar Galfimbul



Sweet Revenge/Сладкая месть

Год выпуска: 1996
Страна: США
Жанр: Feature, Straight
Продолжительность: 01:19:46
Перевод: Отсутствует
Русские субтитры: нет

Режиссер:Toni English
Студия:Vivid Wave
В ролях: Bobby Vitale, Kaitlyn Ashley, Madelyn Knight, Melissa Hill, Mia Ciccero, Sahara Sands, Steven St. Croix

Описание: We have some of the Vivid old school in this one. Our featured actress is Melissa Hill with the rest of the cast rounded out (some are very rounded) with Madelyn Knight, Kaitlyn Ashley, Sahara Sands, and Mia Ciccero. Frankly, Vivid has done such an awful job of the box cover, promotional material and credits, that I had no idea who was who in this film. After diligent research on the WWW, I have found out a couple things. 1) The redhead is Melissa Hill, and 2) The brunette is Madelyn Knight. Everyone else is severely blonde. The guys are Steven St. Croix, and Bobby Vitale. I personally don’t like Mr. Vitale all that much, he reminds me of the greasy club owner from Boogie Nights.
Качество: DVDRip
Формат: AVI
Видео кодек: DivX
Видео: Video: DivX 3 640x480 25.00fps 962Kbps [Video 0]
Аудио: Audio: MPEG Audio Layer 3 44100Hz stereo 191Kbps [Audio 1]
Scene 1. Mia Ciccero, Steven St. Croix
Scene 2. Kaitlyn Ashley, Madelyn Night, Melissa Hill, Sahara Sands
Scene 3. Madelyn Night, Steven St. Croix
Scene 4. Kaitlyn Ashley, Sahara Sands, Bobby Vitale, Steven St. Croix
Scene 5. Melissa Hill, Steven St. Croix
Video
ID : 0
Format : MPEG-4 Visual
Format profile : Advanced Simple@L5
Format settings, BVOP : 2
Format settings, QPel : No
Format settings, GMC : No warppoints
Format settings, Matrix : Custom
Muxing mode : Packed bitstream
Codec ID : XVID
Codec ID/Hint : XviD
Duration : 1h 51mn
Bit rate : 1 746 Kbps
Width : 640 pixels
Height : 480 pixels
Display aspect ratio : 4:3
Frame rate : 29.970 fps
Color space : YUV
Chroma subsampling : 4:2:0
Bit depth : 8 bits
Scan type : Progressive
Compression mode : Lossy
Bits/(Pixel*Frame) : 0.234
Stream size : 1.36 GiB (93%)
Writing library : XviD 1.2.0SMP (UTC 2006-01-08)

Audio
ID : 1
Format : MPEG Audio
Format version : Version 1
Format profile : Layer 3
Mode : Joint stereo
Codec ID : 55
Codec ID/Hint : MP3
Duration : 1h 51mn
Bit rate mode : Variable
Bit rate : 128 Kbps
Channel(s) : 2 channels
Sampling rate : 48.0 KHz
Compression mode : Lossy
Stream size : 101 MiB (7%)
Alignment : Aligned on interleaves
Interleave, duration : 24 ms (0.72 video frame)
Interleave, preload duration : 476 ms
Writing library : LAME3.90.
Encoding settings : -m j -V 4 -q 2 -lowpass 17.6 --abr 128


Внимание! AdBlock блокирует показ скриншотов, все вопросы к разработчикам )))

Трекер:  [ 03-Апр-2012 21:33 ]

  

Скачать .torrent

Размер .torrent файла 11 KB


Размер: 1.06 GB
Хэш (hash) релиза: 42bbbff5c3f4fe0a68f682c2b0b16588af6b12db

Торренты, похожие на Sweet RevengeСладкая месть скачать торрент

Форум Название Автор Размер S L Добавлен
Фильмы с сюжетом / Feature & Vignettes ·· Shay's Sweet Revenge / Сладкая месть Шэй (Cash Markman, Dreamland) [2001 г., Feature, SiteRip] (Shay Sweet, Felecia, Miko Lee, Coral Sands, Sunrise Adams, Michelle Katz, Joel Lawrence, Lee Stone, Jay Ashley, Fran Bukkwyd, George Kaplan) Galfimbul 11987905921.12 GB 0 0 1684260246

21:04

16-Май-23

Гонзо-фильмы 2011-2022 / Gonzo 2011-2022 ·· Sweet Revenge / Сладкая месть (Roma Amor, SinfulXXX) [2021 г., Big Boobs,Creampie,Interracial, WEB-DL] (Split Scenes) (Lya Missy,Romy Indy,Zaawaadi) Galfimbul 1014580867968 MB 1 0 1640415010

09:50

25-Дек-21

Гонзо, Лесбо и Фильмы без сюжета (HD Video) / Gonzo, All Girl & Solo, All Sex (HD Video) ·· Sweet Revenge / Сладкая Месть (Bluebird Films) [2011 г., Gang Bang, Big Boobs, Facial, Cumshot, Foursome, Toys, Fetish, Threesome, Tattoo, WEB-DL, 1080p] (Jasmine Black, Sensual Jane, Stacey Lacey, Paige Fox, Caprice Jane, Lou Charmelle) Galfimbul 1126327375510.49 GB 0 0 1464084853

13:14

24-Май-16

Лесбо-фильмы / All Girl & Solo ·· Lesbian Doms And Subs 2. Revenge Is Sweet / Лесбийские Доминаторы И Подчиняющиеся 2. Сладкая Месть (Nica Noelle, Girl Candy Films) [2013 г., Lesbian, Asian, Interracial, DVDRip] LinGr 586332315559 MB 0 0 1368823281

23:41

17-Май-13

Еще никто не оставлял запись к записи скачать торрент Sweet RevengeСладкая месть . Будь первым!

!Обратная связь