Скачать порно через торрент French Kiss Французский поцелуй UnionPeer.org бесплатно онлайн HD качество

Скачать новое порно 2015, 2014 новинки через торрент UnionPeer.org

Порно торрент бесплатно ЮнионПир.орг

Статистика раздачи
Размер:  1.56 GB   |    Зарегистрирован:  12 лет   |    .torrent скачан:  1941 раз   |   
Раздают:  1  
 

Скачать French Kiss / Французский поцелуй (John Walton, 21 Sextury) [2007 г., Feature, All Sex, Anal, DP, DVDRip] [rus](с русским переводом) Black Angelika, Aletta Ocean, Lulu, Sandra, Zafira через torrent

 
 
Автор Сообщение

_N_

avatar _N_



Оригинальное название: French Kiss
Год выхода: 2007
Страна: Германия
Жанр: Анальный Секс, Классический Секс, Порнофильмы с Сюжетом
Продолжительность: 02:12:27
Режиссер: Джон Уолтон (John Walton)
Студия:
В ролях: Алетта Оушен /Aletta Ocean/, Блэк Анжелика /Black Angelika/, Зафира /Zafira/, Sandra, Lulu
Перевод: Любительский (двухголосый, ПорноКино.ру)
Субтитры: нет
Описание: With the making of French Kiss, and old desire of mine came true. I always wanted to make a romantic, passion-filled movie with breath-takingly gorgeous girls – and could you find a better location for filming it than an enticing, old castle in the French Riviera? We spent a memorable ten days amongst the natural beauties of the seaside and the posh cities of the Cote'd Azure – and I'm sure our starlets would also recall this shooting as the best ever...
Описание
Когда 19 летняя Ева принимает приглашение своего загадочного дяди из Франции, она незаметно делает первые шаги к сексуальному пробуждению. Столкновение с настоящей страстью навсегда перевернут невинную жизнь Евы...
Качество: DVDRip
Формат: AVI
Видео кодек: XviD
Видео: XviD 64, 720x416 (16:9), 25 fps, 1490 kbps avg, 0.199 bit/pixel
Аудио кодек: AC3
Звук: AC3 Dolby Digital, 48 kHz, 2/0 (L,R) ch, 192.00 kbps avg
Scene 01: Aletta Ocean, guy
Scene 02: Lulu, Sandra, guy
Scene 03: Sandra, 3 guys
Scene 04: Black Angelika, 2 guys
Scene 05: Aletta Ocean, Sandra, Zafira
Scene 06: Aletta Ocean, guy
Scene 07: Aletta Ocean, 2 guys




...French Kiss.avi
General
Complete name : French Kiss.avi
Format : AVI
Format/Info : Audio Video Interleave
File size : 1.56 GiB
Duration : 2h 12mn
Overall bit rate : 1 689 Kbps
Writing application : VirtualDubMod 1.5.4.1 (build 2178/release)
Writing library : VirtualDubMod build 2178/release
Video #0
ID : 0
Format : MPEG-4 Visual
Format profile : Advanced Simple@L5
Format settings, BVOP : 1
Format settings, QPel : No
Format settings, GMC : No warppoints
Format settings, Matrix : Custom
Codec ID : XVID
Codec ID/Hint : XviD
Duration : 2h 12mn
Bit rate : 1 490 Kbps
Width : 720 pixels
Height : 416 pixels
Display aspect ratio : 16:9
Frame rate : 25.000 fps
Color space : YUV
Chroma subsampling : 4:2:0
Bit depth : 8 bits
Scan type : Progressive
Compression mode : Lossy
Bits/(Pixel*Frame) : 0.199
Stream size : 1.38 GiB (88%)
Writing library : XviD 64
Audio #1
ID : 1
Format : AC-3
Format/Info : Audio Coding 3
Mode extension : CM (complete main)
Codec ID : 2000
Duration : 2h 12mn
Bit rate mode : Constant
Bit rate : 192 Kbps
Channel(s) : 2 channels
Channel positions : Front: L R
Sampling rate : 48.0 KHz
Bit depth : 16 bits
Compression mode : Lossy
Stream size : 182 MiB (11%)
Alignment : Split accross interleaves
Interleave, duration : 96 ms (2.40 video frames)
Interleave, preload duration : 96 ms
Language : Russian


Внимание! AdBlock блокирует показ скриншотов, все вопросы к разработчикам )))

Трекер:  [ 17-Апр-2012 19:26 ]

  

Скачать .torrent

Размер .torrent файла 16 KB


Размер: 1.56 GB
Хэш (hash) релиза: 5e718ad9d4cef90c34e8ab369bb79f526348769c

Еще никто не оставлял запись к записи скачать торрент French Kiss Французский поцелуй . Будь первым!

!Обратная связь