Скачать порно через торрент A Pussy Called Wanda 2 Madam Called Wanda 2 UnionPeer.org бесплатно онлайн HD качество

Скачать новое порно 2015, 2014 новинки через торрент UnionPeer.org

Порно торрент бесплатно ЮнионПир.орг

Статистика раздачи
Размер:  935 MB   |    Зарегистрирован:  12 лет   |    .torrent скачан:  603 раза   |   
Раздают:  1  
 

Скачать A Pussy Called Wanda 2 / Madam Called Wanda 2 / Киска по имени Ванда 2 (Eric Edwards / Эрик Эдвардс, Dreamland Entertainment) [1993 г., Фильм с сюжетом, VHSRip] через torrent

 
 
Автор Сообщение

_N_

avatar _N_


A Pussy Called Wanda 2 / Madam Called Wanda 2 / Киска по имени Ванда 2

Год производства: 1993 г.
Страна: USA
Жанр: Фильм с сюжетом
Продолжительность: 01.19.43
Язык: Английский

Режиссер: Eric Edwards / Эрик Эдвардс
Студия: Dreamland Entertainment

В ролях:
Scene 1. Kiss
Scene 2. Chrissy Ann, Rocco Siffredi
Scene 3. Deidre Holland, Jon Dough
Scene 4. Kiss, Kris Newz
Scene 5. Chrissy Ann
Scene 6. Cody O'Connor, Jon Dough
Scene 7. Deidre Holland, Tom Byron

Описание: A Pussy Called Wanda is a parody in name only. The story revolves around the PussyCat Escort Agency and its' clientele. The movie was directed by Eric Edwards and features Diedre Holland as the Madame.

Доп. информация: Хард порно 90-х с сюжетом. Режисссер Эрик Эдвардс известный порно актер в 70-е активно снимался у джозефа Сарно : Признание молодой домохозяйки / Признание американской домохозяйки / Confessions of a Young American Housewife (1974), Возвращение Абигайл Лесли / Abigail Lesley Is Back in Town (1975), Игрушки для Лоры / Laura's Toys (1975)

Качество видео: VHSRip
Формат видео: AVI
Видео кодек: XviD
Аудио кодек: ACC
Видео: Format : MPEG-4 Visual
Format profile : Advanced Simple@L5 Format settings, BVOP : 2
Format settings, QPel : No Format settings, GMC : No warppoints
Format settings, Matrix : Default (H.263) Codec ID : XVID Codec ID/Hint : XviD Duration : 1h 19mn
Bit rate : 1 496 Kbps Width : 640 pixels Height : 480 pixels Display aspect ratio : 4:3 Frame rate : 29.970 fps Color space : YUV
Chroma subsampling : 4:2:0 Bit depth : 8 bits Scan type : Progressive
Compression mode : Lossy Bits/(Pixel*Frame) : 0.162 Stream size : 853 MiB (91%) Writing library : XviD 1.2.1 (UTC 2008-12-04)
Аудио: Format : AAC
Format/Info : Advanced Audio Codec Format profile : LC Codec ID : FF Duration : 1h 19m Bit rate : 128 Kbps Channel(s) : 2 channels Channel positions : Front: L R
Sampling rate : 48.0 KHz Compression mode : Lossy Stream size : 73.0 MiB (8%) Alignment : Split accross interleaves Interleave, duration : 21 ms (0.64 video frame)

Внимание! AdBlock блокирует показ скриншотов, все вопросы к разработчикам )))

Трекер:  [ 17-Апр-2012 19:31 ]

  

Скачать .torrent

Размер .torrent файла 18 KB


Размер: 935 MB
Хэш (hash) релиза: c5b4f9b7724aa97976dd8e40f547e30b107c7b89

Еще никто не оставлял запись к записи скачать торрент A Pussy Called Wanda 2 Madam Called Wanda 2 . Будь первым!

!Обратная связь