Скачать порно через торрент Screaming Joy Кричащая Радость UnionPeer.org бесплатно онлайн HD качество

Скачать новое порно 2015, 2014 новинки через торрент UnionPeer.org

Порно торрент бесплатно ЮнионПир.орг

Статистика раздачи
Размер:  3.23 GB   |    Зарегистрирован:  12 лет   |    .torrent скачан:  217 раз   |   
Раздают:  1  
 

Скачать Screaming Joy / Кричащая Радость (Adriane Gold, Legend) [2001 г., Porn, Porn, Porn] через torrent

 
 
Автор Сообщение

_N_

avatar _N_


Screaming Joy / Кричащая Радость

Год производства: 2001 г.
Страна: United States of America
Жанр: Porn, Porn, Porn
Язык: Английский

Режиссер: Adriane Gold
Студия: Legend

В ролях: Devin Wolf, Angelica Sin, Renee La Rue, Julie Meadows, Lita Chase, Adam Wilde, Jake Ryder

Куплет первый:

Тихо и тепло в лесу
Ветром сосны гнутся
Мужик бабу так ебет
Сиськи аж трясутся

Куплет второй:

Трактористы пашут поле
Клубы дыма вьются
То ли баба, то ль мужик
В озере ебутся

Куплет третий:

По камням течет вода
Солнце в небе светит
Парень девке задрал платье
И пизду теребит

Куплет четвертый:

Рано утром черз лес
Шел молодец с молодкой
Портки скинул, шишку вынул
И присунул ловко
WARNING - SEXUALLY EXPLICIT CONTENT AND/OR ULTIMATE VIOLENCE, BLOOD AND GORE

It's contains sexually explicit materials, adult-oriented novelties and products intended for individuals 21 years of age or older with the legal right to access such materials and products as determined by the local and national laws of the region in which you reside.

If you are not yet 21, if adult material offends you, or if you are accessing this site from any country or locale where adult material is prohibited by law or may violate your community standards, DO NOT CONTINUE!

Will You?
GOOD!
Format : MPEG-PS
File size : 858 MiB
Duration : 22mn 45s
Overall bit rate : 5 268 Kbps

Video
ID : 224 (0xE0)
Format : MPEG Video
Format version : Version 2
Format profile : Main@Main
Format settings, BVOP : Yes
Format settings, Matrix : Default
Format settings, GOP : M=3, N=16
Duration : 22mn 45s
Bit rate : 5 000 Kbps
Width : 720 pixels
Height : 480 pixels
Display aspect ratio : 4:3
Frame rate : 29.970 fps
Standard : NTSC
Color space : YUV
Chroma subsampling : 4:2:0
Bit depth : 8 bits
Scan type : Interlaced
Scan order : Top Field First
Compression mode : Lossy
Bits/(Pixel*Frame) : 0.483
Stream size : 809 MiB (94%)
Color primaries : BT.470-2 System B, BT.470-2 System G
Transfer characteristics : BT.470-2 System B, BT.470-2 System G
Matrix coefficients : BT.470-2 System B, BT.470-2 System G

Audio
ID : 192 (0xC0)
Format : MPEG Audio
Format version : Version 1
Format profile : Layer 2
Duration : 22mn 45s
Bit rate mode : Constant
Bit rate : 192 Kbps
Channel(s) : 2 channels
Sampling rate : 48.0 KHz
Compression mode : Lossy
Stream size : 31.3 MiB (4%)
WARNING - SEXUALLY EXPLICIT CONTENT AND/OR ULTIMATE VIOLENCE, BLOOD AND GORE

It's contains sexually explicit materials, adult-oriented novelties and products intended for individuals 21 years of age or older with the legal right to access such materials and products as determined by the local and national laws of the region in which you reside.

If you are not yet 21, if adult material offends you, or if you are accessing this site from any country or locale where adult material is prohibited by law or may violate your community standards, DO NOT CONTINUE!

Will You?
GOOD!
Format : MPEG-PS
File size : 627 MiB
Duration : 16mn 38s
Overall bit rate : 5 268 Kbps

Video
ID : 224 (0xE0)
Format : MPEG Video
Format version : Version 2
Format profile : Main@Main
Format settings, BVOP : Yes
Format settings, Matrix : Default
Format settings, GOP : M=3, N=16
Duration : 16mn 38s
Bit rate : 5 000 Kbps
Width : 720 pixels
Height : 480 pixels
Display aspect ratio : 4:3
Frame rate : 29.970 fps
Standard : NTSC
Color space : YUV
Chroma subsampling : 4:2:0
Bit depth : 8 bits
Scan type : Interlaced
Scan order : Top Field First
Compression mode : Lossy
Bits/(Pixel*Frame) : 0.483
Stream size : 592 MiB (94%)
Color primaries : BT.470-2 System B, BT.470-2 System G
Transfer characteristics : BT.470-2 System B, BT.470-2 System G
Matrix coefficients : BT.470-2 System B, BT.470-2 System G

Audio
ID : 192 (0xC0)
Format : MPEG Audio
Format version : Version 1
Format profile : Layer 2
Duration : 16mn 38s
Bit rate mode : Constant
Bit rate : 192 Kbps
Channel(s) : 2 channels
Sampling rate : 48.0 KHz
Compression mode : Lossy
Stream size : 22.9 MiB (4%)
WARNING - SEXUALLY EXPLICIT CONTENT AND/OR ULTIMATE VIOLENCE, BLOOD AND GORE

It's contains sexually explicit materials, adult-oriented novelties and products intended for individuals 21 years of age or older with the legal right to access such materials and products as determined by the local and national laws of the region in which you reside.

If you are not yet 21, if adult material offends you, or if you are accessing this site from any country or locale where adult material is prohibited by law or may violate your community standards, DO NOT CONTINUE!

Will You?
GOOD!
Format : MPEG-PS
File size : 739 MiB
Duration : 19mn 37s
Overall bit rate : 5 268 Kbps

Video
ID : 224 (0xE0)
Format : MPEG Video
Format version : Version 2
Format profile : Main@Main
Format settings, BVOP : Yes
Format settings, Matrix : Default
Format settings, GOP : M=3, N=16
Duration : 19mn 37s
Bit rate : 5 000 Kbps
Width : 720 pixels
Height : 480 pixels
Display aspect ratio : 4:3
Frame rate : 29.970 fps
Standard : NTSC
Color space : YUV
Chroma subsampling : 4:2:0
Bit depth : 8 bits
Scan type : Interlaced
Scan order : Top Field First
Compression mode : Lossy
Bits/(Pixel*Frame) : 0.483
Stream size : 698 MiB (94%)
Color primaries : BT.470-2 System B, BT.470-2 System G
Transfer characteristics : BT.470-2 System B, BT.470-2 System G
Matrix coefficients : BT.470-2 System B, BT.470-2 System G

Audio
ID : 192 (0xC0)
Format : MPEG Audio
Format version : Version 1
Format profile : Layer 2
Duration : 19mn 37s
Bit rate mode : Constant
Bit rate : 192 Kbps
Channel(s) : 2 channels
Sampling rate : 48.0 KHz
Compression mode : Lossy
Stream size : 26.9 MiB (4%)
WARNING - SEXUALLY EXPLICIT CONTENT AND/OR ULTIMATE VIOLENCE, BLOOD AND GORE

It's contains sexually explicit materials, adult-oriented novelties and products intended for individuals 21 years of age or older with the legal right to access such materials and products as determined by the local and national laws of the region in which you reside.

If you are not yet 21, if adult material offends you, or if you are accessing this site from any country or locale where adult material is prohibited by law or may violate your community standards, DO NOT CONTINUE!

Will You?
GOOD!
Format : MPEG-PS
File size : 750 MiB
Duration : 19mn 54s
Overall bit rate : 5 268 Kbps

Video
ID : 224 (0xE0)
Format : MPEG Video
Format version : Version 2
Format profile : Main@Main
Format settings, BVOP : Yes
Format settings, Matrix : Default
Format settings, GOP : M=3, N=16
Duration : 19mn 54s
Bit rate : 5 000 Kbps
Width : 720 pixels
Height : 480 pixels
Display aspect ratio : 4:3
Frame rate : 29.970 fps
Standard : NTSC
Color space : YUV
Chroma subsampling : 4:2:0
Bit depth : 8 bits
Scan type : Interlaced
Scan order : Top Field First
Compression mode : Lossy
Bits/(Pixel*Frame) : 0.483
Stream size : 708 MiB (94%)
Color primaries : BT.470-2 System B, BT.470-2 System G
Transfer characteristics : BT.470-2 System B, BT.470-2 System G
Matrix coefficients : BT.470-2 System B, BT.470-2 System G

Audio
ID : 192 (0xC0)
Format : MPEG Audio
Format version : Version 1
Format profile : Layer 2
Duration : 19mn 54s
Bit rate mode : Constant
Bit rate : 192 Kbps
Channel(s) : 2 channels
Sampling rate : 48.0 KHz
Compression mode : Lossy
Stream size : 27.3 MiB (4%)
WARNING - SEXUALLY EXPLICIT CONTENT AND/OR ULTIMATE VIOLENCE, BLOOD AND GORE

It's contains sexually explicit materials, adult-oriented novelties and products intended for individuals 21 years of age or older with the legal right to access such materials and products as determined by the local and national laws of the region in which you reside.

If you are not yet 21, if adult material offends you, or if you are accessing this site from any country or locale where adult material is prohibited by law or may violate your community standards, DO NOT CONTINUE!

Will You?
GOOD!
Format : MPEG-PS
File size : 335 MiB
Duration : 8mn 53s
Overall bit rate : 5 269 Kbps

Video
ID : 224 (0xE0)
Format : MPEG Video
Format version : Version 2
Format profile : Main@Main
Format settings, BVOP : Yes
Format settings, Matrix : Default
Format settings, GOP : M=3, N=16
Duration : 8mn 53s
Bit rate : 5 000 Kbps
Width : 720 pixels
Height : 480 pixels
Display aspect ratio : 4:3
Frame rate : 29.970 fps
Standard : NTSC
Color space : YUV
Chroma subsampling : 4:2:0
Bit depth : 8 bits
Scan type : Interlaced
Scan order : Top Field First
Compression mode : Lossy
Bits/(Pixel*Frame) : 0.483
Stream size : 316 MiB (94%)
Color primaries : BT.470-2 System B, BT.470-2 System G
Transfer characteristics : BT.470-2 System B, BT.470-2 System G
Matrix coefficients : BT.470-2 System B, BT.470-2 System G

Audio
ID : 192 (0xC0)
Format : MPEG Audio
Format version : Version 1
Format profile : Layer 2
Duration : 8mn 53s
Bit rate mode : Constant
Bit rate : 192 Kbps
Channel(s) : 2 channels
Sampling rate : 48.0 KHz
Compression mode : Lossy
Stream size : 12.2 MiB (4%)


Внимание! AdBlock блокирует показ скриншотов, все вопросы к разработчикам )))

Трекер:  [ 18-Апр-2012 17:51 ]

  

Скачать .torrent

Размер .torrent файла 17 KB


Размер: 3.23 GB
Хэш (hash) релиза: db115bbc350bf4c753e6365e9108e40c995b03c9

Еще никто не оставлял запись к записи скачать торрент Screaming Joy Кричащая Радость . Будь первым!

!Обратная связь