Скачать через торрент Аватар Avatar Фильм бесплатно в хорошем качестве torrent

Скачивайте на UnionPeer.org фильмы через торрент без регистрации. Новинки кино в хорошем качестве через торрент. На UnionPeer.org можно скачать через торрент фильмы 2014 и 2015 годов. Самые новые фильмы.

Скачать торрент Аватар Avatar бесплатно через .torrent фильм мультфильм сериал

Статистика раздачи
Размер:  4.37 GB   |    Зарегистрирован:  7 лет 6 месяцев   |    .torrent скачан:  145 раз   |   
Раздают:  1  
   
загрузка...
 
Автор Сообщение

bunt

avatar bunt


Аватар / Avatar (Bonus) (2009) BDRip [720p]

Релиз от HQ-ViDEO

Год выпуска: 2009
Выпущено: Twentieth Century Fox Film Corporation
Жанр: Фантастика , Боевик , Драма , Приключения, Документальный
Продолжительность: 01:07:51 min | 00:52:18 min
Язык: Английский
Язык субтитров: -

Режиссер: Джеймс Кэмерон /James Cameron/

В ролях: Сэм Уортингтон /Sam Worthington/, Зои Салдана /Zoe Saldana/, Сигурни Уивер /Sigourney Weaver/, Стивен Лэнг /Stephen Lang/, Мишель Родригес /Michelle Rodriguez/, Джованни Рибизи /Giovanni Ribisi/, Джоэль Мур /Joel Moore/, Си Си Эйч Паундер /CCH Pounder/, Уэс Студи /Wes Studi/, Лас Алонсо /Laz Alonso/

Описание:

Bonus1 - Deleted Scenes
• “Capturing Avatar“ An in-depth feature length documentary with James Cameron, Jon Landau and cast and crew; Deleted Scenes – including over 45 minutes of new never-before-seen deleted scenes; and Production Materials.

Bonus2 - Additional bonus materials
• Open “Pandora’s Box” and go deeper into the filmmaker process; Interactive Scene Deconstruction: Explore the various stages of production through 3 different viewing modes; Production Shorts: 17 featurettes covering performance capture, scoring the film, 3D fusion camera, stunts and much more; Avatar Archives including original scriptment, 300 page screenplay and the extensive Pandorapedia

Качество: BDRip 720p (источник: Blu-ray Disc)[Encoded by GYN]
Формат: MKV
Видео кодек: H.264
Видео: 1 280 x 536, 4 302 kbps, 23.976 fps || 1 280 x 720, 5 634 kbps, 23.976 fps
Аудио кодек: AC3
Аудио#1: AC3, 2.0 Ch, 48 kHz, 224.00 kbps English (disc 1)
Аудио#2: AC3, 5.1 Ch, 48 kHz, 224.00 kbps English (disc 2)
General
Complete name : Avatar.2009.Bonus1.BDRip.720p.h264.AC3.-HQ-ViDEO.mkv
Format : Matroska
File size : 2.19 GiB
Duration : 1h 7mn
Overall bit rate : 4 618 Kbps
Movie name : Avatar (2009) [Deleted Scenes]
Encoded date : UTC 2010-11-26 15:19:16
Writing application : mkvmerge v3.3.0 ('Language') built on Mar 24 2010 14:59:24
Writing library : libebml v0.8.0 + libmatroska v0.9.0

Video
ID : 1
Format : AVC
Format/Info : Advanced Video Codec
Format profile : High@L4.1
Format settings, CABAC : Yes
Format settings, ReFrames : 6 frames
Muxing mode : Container profile=Unknown@4.1
Codec ID : V_MPEG4/ISO/AVC
Duration : 1h 7mn
Bit rate : 4 302 Kbps
Width : 1 280 pixels
Height : 536 pixels
Display aspect ratio : 2.35:1
Frame rate : 23.976 fps
Resolution : 8 bits
Colorimetry : 4:2:0
Scan type : Progressive
Bits/(Pixel*Frame) : 0.262
Stream size : 2.04 GiB (93%)
Title : Encoded by GYN

Audio
ID : 2
Format : AC-3
Format/Info : Audio Coding 3
Codec ID : A_AC3
Duration : 1h 7mn
Bit rate mode : Constant
Bit rate : 224 Kbps
Channel(s) : 2 channels
Channel positions : L R
Sampling rate : 48.0 KHz
Stream size : 109 MiB (5%)
Title : Original
Language : English
General
Complete name : Avatar.2009.Bonus2.BDRip.720p.h264.AC3.-HQ-ViDEO.mkv
Format : Matroska
File size : 2.18 GiB
Duration : 52mn 18s
Overall bit rate : 5 976 Kbps
Movie name : Avatar (2009) [Additional bonus materials]
Encoded date : UTC 2010-11-26 14:27:07
Writing application : mkvmerge v3.3.0 ('Language') built on Mar 24 2010 14:59:24
Writing library : libebml v0.8.0 + libmatroska v0.9.0

Video
ID : 1
Format : AVC
Format/Info : Advanced Video Codec
Format profile : High@L4.1
Format settings, CABAC : Yes
Format settings, ReFrames : 6 frames
Muxing mode : Container profile=Unknown@4.1
Codec ID : V_MPEG4/ISO/AVC
Duration : 52mn 15s
Bit rate : 5 634 Kbps
Width : 1 280 pixels
Height : 720 pixels
Display aspect ratio : 16:9
Frame rate : 23.976 fps
Resolution : 8 bits
Colorimetry : 4:2:0
Scan type : Progressive
Bits/(Pixel*Frame) : 0.255
Stream size : 2.06 GiB (94%)
Title : Encoded by GYN

Audio
ID : 2
Format : AC-3
Format/Info : Audio Coding 3
Codec ID : A_AC3
Duration : 52mn 18s
Bit rate mode : Constant
Bit rate : 224 Kbps
Channel(s) : 6 channels
Channel positions : Front: L C R, Surround: L R, LFE
Sampling rate : 48.0 KHz
Stream size : 83.8 MiB (4%)
Title : Original
Language : English
Релиз:

Трекер:  [ 28-Ноя-2010 00:58 ]

  

Скачать .torrent

Размер .torrent файла 23 KB


Размер: 4.37 GB
Хэш (hash) релиза: 882d6d2a5cc9e1a7bec213369e90b128cd70b5ec
Подписка на обновления:

Торренты, похожие на Аватар Avatar скачать торрент

Форум Название Автор Размер S L Добавлен
Зарубежные фильмы до 2016 ·· Аватар / Avatar (Джеймс Кэмерон / James Cameron) [2009, США, Великобритания, фантастика, боевик, драма, приключения, BDRip 1080p] [Special Edition Re-release Cut] Dub (CEE) + Sub (Rus, Eng) + Original Eng Galfimbul 1780882007216.59 GB 0 0 1523485822

01:30

12-Апр-18

Азиатские фильмы ·· Аватар / Avatar (Джиан Хонг Куо (Jian Hong Kuo)) [2004, Сингапур, Фантастика / Боевик / Триллер / Драма, DVDRip] Galfimbul 734177280700 MB 0 0 1497954682

13:31

20-Июн-17

Зарубежные фильмы до 2016 ·· Аватар / Avatar (Джеймс Кэмерон / James Cameron) [2009, США, Великобритания, фантастика, боевик, драма, приключения, BDRip] [Театральная версия] AVO (Горчаков) Galfimbul 31354490882.92 GB 0 0 1458224712

17:25

17-Мар-16

3D Фильмы, кино ·· Аватар / Avatar (Джеймс Кэмерон / James Cameron) [2009, фантастика, боевик, драма, приключения, BDRip 1080p] 3D [Вертикальная анаморфная стереопара] [hand made 60 fps] HAwkey 3305724684730.79 GB 0 0 1431945804

13:43

18-Май-15

Развлекательные телепередачи и шоу ·· Отходняк в Пургатории / Аватар / Avatar (Джеймс Кэмерон / James Cameron) [2009 г., Смешной перевод, BDRip] AVO (Карповский) Galfimbul 23462113282.19 GB 0 0 1420740587

21:09

8-Янв-15

Зарубежные фильмы до 2016 ·· Аватар / Avatar (Джеймс Кэмерон / James Cameron) [2009, США, фантастика, приключения, BDRip] [Extended Cut / Расширенная версия] Dub + Sub (Rus) Galfimbul 23395584182.18 GB 0 0 1409039706

10:55

26-Авг-14

Зарубежные фильмы до 2016 ·· Аватар / Avatar (Джеймс Кэмерон / James Cameron) [2009 г., США, Великобритания, боевик, приключения, фантастика, BDRip 720p 10bit] [Extended Collector's Cut] Dub + DVO (Кубик в кубе) + AVO (Ю. Сербин) + Original (Eng)+ Subs (Rus, Eng) Galfimbul 2044014219519.04 GB 0 0 1382431411

11:43

22-Окт-13

Зарубежные фильмы до 2016 ·· Аватар / Avatar (Джеймс Кэмерон / James Cameron) [2009 г., фантастика, BDRip-AVC] [Расширенная версия / Extended Cut] Dub + Original (Eng) + Sub (Rus, Eng) Galfimbul 31218555692.91 GB 0 0 1375930396

05:53

8-Авг-13

PSVita | Видео ·· [VITA][FILM] Аватар / Avatar (Джеймс Кэмерон / James Cameron) [2009 г., фантастика, боевик, драма, приключения, BDRip, 544p, DUB] [Extended Collector's Cut] Galfimbul 36086609533.36 GB 0 0 1370951532

14:52

11-Июн-13

Зарубежные фильмы до 2016 ·· Аватар / Avatar (Джеймс Кэмерон / James Cameron) [2009, Фантастика, боевик, драма, приключения, HDRip] [Театральная версия / Theatrical Cut] AVO (Гаврилов) + Subs (Rus, Eng) Galfimbul 15725238941.46 GB 0 0 1325019708

00:01

28-Дек-11

Зарубежные фильмы до 2016 ·· Аватар / Avatar (Джеймс Кэмерон / James Cameron) [2009 г., фантастика, боевик, драма, приключения, BDRip] [Расширенная версия / Extended Cut] Dub + DVO (Кубик в кубе) + AVO (Ю. Сербин) + Original + Subs (Rus x9, Eng x5) L 56032257905.22 GB 0 0 1322568089

15:01

29-Ноя-11

PSP | Фильмы ·· Аватар / Avatar (Джеймс Кэмерон / James Cameron) [2010 г., фантастика, боевик, триллер, драма, приключения., HDRip][Расширенное Издание] vovik0134 977835514933 MB 0 0 1294726458

09:14

11-Янв-11

PSP | Фильмы ·· Аватар / Avatar (Джеймс Кэмерон) [2009 г., фантастика, боевик, триллер, драма, приключения, BDRip][Дубляж] кУпи!!! 985278859940 MB 0 0 1294608492

00:28

10-Янв-11

Зарубежные фильмы до 2016 ·· Аватар / Avatar (Джеймс Кэмерон / James Cameron) [2009 г., фантастика, боевик, триллер, приключения, DVD9] R5 "Двадцатый Век Фокс СНГ" Captain Claw 79921152007.44 GB 0 0 1291867770

07:09

9-Дек-10

Зарубежные фильмы до 2016 ·· Аватар / Avatar (Джеймс Кэмерон / James Cameron) [2010 г., Боевик, приключения, фантастика, BDRemux 1080p] [Extended Collector's Cut] MaTaDoRe 3801061610635.4 GB 0 0 1290261870

17:04

20-Ноя-10

Зарубежные фильмы до 2016 ·· Аватар / Avatar [2009, США, Великобритания, фантастика, боевик, драма, приключения, Blu-ray disc] Extended Collectors Edition DUB Sub rus + original eng MaTaDoRe 4969801240546.28 GB 0 0 1290208592

02:16

20-Ноя-10

Зарубежные фильмы до 2016 ·· Аватар / Avatar (Джеймс Кэмерон / James Cameron) [2009 г., Боевик, приключения, фантастика, BDRip 720p] [Extended Collector's Cut] MaTaDoRe 1306639383312.17 GB 0 0 1290189250

20:54

19-Ноя-10

Зарубежные фильмы до 2016 ·· Аватар / Avatar (Джеймс Кэмерон / James Cameron) [2009 г., Боевик, приключения, фантастика, BDRip 1080p] [Extended Collector's Cut] MaTaDoRe 2307943472021.49 GB 0 0 1290189139

20:52

19-Ноя-10

Зарубежные фильмы до 2016 ·· Аватар / Avatar – Cyber Wars (Джиан Хонг Куо / Jian Hong Kuo) [2004 г., Фантастика, боевик, DVDRip] oartemka178 14102200321.31 GB 0 0 1289668608

20:16

13-Ноя-10

MaTaDoRe

Русский перевод в данной раздаче присутствует или нет?

bunt

Перевода нет.

Хотите добавить комментарий к записи скачать торрент Аватар Avatar

!Обратная связь