Скачать через торрент Makai Kishi Ingrid The Dark Knight Ingrid бесплатно русская версия torrent активатор

Статистика раздачи
Размер:  13.96 GB   |    Зарегистрирован:  11 лет   |    .torrent скачан:  447 раз   |   
Раздают:  1  
   
 
Автор Сообщение

L


| Makai Kishi Ingrid | The Dark Knight Ingrid | Тёмный Рыцарь Ингрид <hr><a href="http://fastpic.ru/" class="postLink"><div align="right"><var class="postImg postImgAligned img-right" title="http://i28.fastpic.ru/big/2012/0120/db/87b5802d4ec213b92d6d5c2c68b600db.jpg">
</var></a> <br><br> Год выпуска: 2009
Страна: Япония <hr>Жанр: big tits, large breasts, rape, tentacles, demons, gangbang, group, monsters, anal, oral
Продолжительность: >4 эп. по 30 мин. <hr>Субтитры: Отсутствуют
Цензура: Присутствует <hr>Студия: Lilith | Pixy | Oz <hr>Описание:
Двух очаровательных девушек посылают убить одного человека, который работал ранее с ними, но позже он их перехитрив берёт в плен... и понеслась! <hr>Информационные ссылки: AniDB || MAL || World Art <hr>Исходник: DVD-5
Видео: MPEG2 | NTSC | 16x9 | 720x480 | 8000 Kbps
Аудио JAP: AC-3 | 48000Hz | 192 Kbps | 2ch
01. Volume 1
02. Volume 2
03. Volume 3
04. Volume 4
General
Complete name : H:\VIDEO_TS\VTS_01_3.VOB
Format : MPEG-PS
File size : 1 024 MiB
Duration : 17mn 9s
Overall bit rate : 8 343 Kbps <br><br> Video
ID : 224 (0xE0)
Format : MPEG Video
Format version : Version 2
Format profile : Main@Main
Format settings, BVOP : Yes
Format settings, Matrix : Custom
Format settings, GOP : M=3, N=15
Duration : 17mn 9s
Bit rate : 8 000 Kbps
Width : 720 pixels
Height : 480 pixels
Display aspect ratio : 16:9
Frame rate : 29.970 fps
Standard : NTSC
Color space : YUV
Chroma subsampling : 4:2:0
Bit depth : 8 bits
Scan type : Interlaced
Scan order : Top Field First
Compression mode : Lossy
Bits/(Pixel*Frame) : 0.772
Stream size : 980 MiB (96%) <br><br> Audio
ID : 189 (0xBD)-128 (0x80)
Format : AC-3
Format/Info : Audio Coding 3
Mode extension : CM (complete main)
Muxing mode : DVD-Video
Duration : 17mn 9s
Bit rate mode : Constant
Bit rate : 192 Kbps
Channel(s) : 2 channels
Channel positions : Front: L R
Sampling rate : 48.0 KHz
Bit depth : 16 bits
Compression mode : Lossy
Delay relative to video : -167ms
Stream size : 23.6 MiB (2%)
<a href="http://fastpic.ru/view/30/2012/0121/1844597b699e18c11f31b64d8c3cfdb9.png.html" class="postLink"><var class="postImg" title="http://i30.fastpic.ru/thumb/2012/0121/b9/1844597b699e18c11f31b64d8c3cfdb9.jpeg">
</var></a>
<a href="http://fastpic.ru/view/31/2012/0121/750e39d3881e3ce9845bcd0a70e89e41.png.html" class="postLink"><var class="postImg" title="http://i31.fastpic.ru/thumb/2012/0121/41/750e39d3881e3ce9845bcd0a70e89e41.jpeg">
</var></a><a href="http://fastpic.ru/view/30/2012/0121/f280382cf18d5d8d4c8df88e43704142.png.html" class="postLink"><var class="postImg" title="http://i30.fastpic.ru/thumb/2012/0121/42/f280382cf18d5d8d4c8df88e43704142.jpeg">
</var></a><a href="http://fastpic.ru/view/27/2012/0121/ad77ff6b3b6f088b8267528ca7b14f0f.png.html" class="postLink"><var class="postImg" title="http://i27.fastpic.ru/thumb/2012/0121/0f/ad77ff6b3b6f088b8267528ca7b14f0f.jpeg">
</var></a><a href="http://fastpic.ru/view/29/2012/0121/080c91e94c04d9ab5f7a212322d952fb.png.html" class="postLink"><var class="postImg" title="http://i29.fastpic.ru/thumb/2012/0121/fb/080c91e94c04d9ab5f7a212322d952fb.jpeg">
</var></a><a href="http://fastpic.ru/view/31/2012/0121/3d63d466b2117ca43f0052b8864b307f.png.html" class="postLink"><var class="postImg" title="http://i31.fastpic.ru/thumb/2012/0121/7f/3d63d466b2117ca43f0052b8864b307f.jpeg">
</var></a><a href="http://fastpic.ru/view/32/2012/0121/6049e42b2fea54b907c268bb84b579c1.png.html" class="postLink"><var class="postImg" title="http://i32.fastpic.ru/thumb/2012/0121/c1/6049e42b2fea54b907c268bb84b579c1.jpeg">
</var></a><a href="http://fastpic.ru/view/32/2012/0121/e2e1eabc7f0f808049d0f499ea230ab0.png.html" class="postLink"><var class="postImg" title="http://i32.fastpic.ru/thumb/2012/0121/b0/e2e1eabc7f0f808049d0f499ea230ab0.jpeg">
</var></a><a href="http://fastpic.ru/view/30/2012/0121/db09725947e71082ef03027917f9fe4e.png.html" class="postLink"><var class="postImg" title="http://i30.fastpic.ru/thumb/2012/0121/4e/db09725947e71082ef03027917f9fe4e.jpeg">
</var></a>
<a href="http://fastpic.ru/" class="postLink"><div align="right"><var class="postImg postImgAligned img-right" title="http://i27.fastpic.ru/big/2012/0120/86/e4e980b083c553d48f9ce0025083f286.jpg">
</var></a> <br><br> Исходник: DVD-5
Видео: MPEG2 | NTSC | 16x9 | 720x480 | 8000 Kbps
Аудио JAP: AC-3 | 48000Hz | 192 Kbps | 2ch
General
Complete name : H:\VIDEO_TS\VTS_01_3.VOB
Format : MPEG-PS
File size : 1 024 MiB
Duration : 17mn 9s
Overall bit rate : 8 344 Kbps <br><br> Video
ID : 224 (0xE0)
Format : MPEG Video
Format version : Version 2
Format profile : Main@Main
Format settings, BVOP : Yes
Format settings, Matrix : Custom
Format settings, GOP : M=3, N=15
Duration : 17mn 9s
Bit rate : 8 000 Kbps
Width : 720 pixels
Height : 480 pixels
Display aspect ratio : 16:9
Frame rate : 29.970 fps
Standard : NTSC
Color space : YUV
Chroma subsampling : 4:2:0
Bit depth : 8 bits
Scan type : Interlaced
Scan order : Top Field First
Compression mode : Lossy
Bits/(Pixel*Frame) : 0.772
Stream size : 980 MiB (96%) <br><br> Audio
ID : 189 (0xBD)-128 (0x80)
Format : AC-3
Format/Info : Audio Coding 3
Mode extension : CM (complete main)
Muxing mode : DVD-Video
Duration : 17mn 9s
Bit rate mode : Constant
Bit rate : 192 Kbps
Channel(s) : 2 channels
Channel positions : Front: L R
Sampling rate : 48.0 KHz
Bit depth : 16 bits
Compression mode : Lossy
Delay relative to video : -157ms
Stream size : 23.6 MiB (2%)
<a href="http://fastpic.ru/view/30/2012/0121/a218ff32d469764e6fe5a9fd239a0419.png.html" class="postLink"><var class="postImg" title="http://i30.fastpic.ru/thumb/2012/0121/19/a218ff32d469764e6fe5a9fd239a0419.jpeg">
</var></a>
<a href="http://fastpic.ru/view/30/2012/0121/01f9e5520902972b4a531f5898e72ba0.png.html" class="postLink"><var class="postImg" title="http://i30.fastpic.ru/thumb/2012/0121/a0/01f9e5520902972b4a531f5898e72ba0.jpeg">
</var></a><a href="http://fastpic.ru/view/31/2012/0121/c4eba4e0776696629a19ca30611ee5b3.png.html" class="postLink"><var class="postImg" title="http://i31.fastpic.ru/thumb/2012/0121/b3/c4eba4e0776696629a19ca30611ee5b3.jpeg">
</var></a><a href="http://fastpic.ru/view/31/2012/0121/f8cab934fea7ec9e08a23331ca1ab1e6.png.html" class="postLink"><var class="postImg" title="http://i31.fastpic.ru/thumb/2012/0121/e6/f8cab934fea7ec9e08a23331ca1ab1e6.jpeg">
</var></a><a href="http://fastpic.ru/view/31/2012/0121/7dde89b49f455e0aa49cab7a4f889bff.png.html" class="postLink"><var class="postImg" title="http://i31.fastpic.ru/thumb/2012/0121/ff/7dde89b49f455e0aa49cab7a4f889bff.jpeg">
</var></a><a href="http://fastpic.ru/view/30/2012/0121/39e2886437a21b1ea5a1b1761ac5ae6d.png.html" class="postLink"><var class="postImg" title="http://i30.fastpic.ru/thumb/2012/0121/6d/39e2886437a21b1ea5a1b1761ac5ae6d.jpeg">
</var></a><a href="http://fastpic.ru/view/31/2012/0121/f3e275f2d0692d7968a04f15a515781a.png.html" class="postLink"><var class="postImg" title="http://i31.fastpic.ru/thumb/2012/0121/1a/f3e275f2d0692d7968a04f15a515781a.jpeg">
</var></a><a href="http://fastpic.ru/view/30/2012/0121/f62daec07d3b2943395d379a5ef24351.png.html" class="postLink"><var class="postImg" title="http://i30.fastpic.ru/thumb/2012/0121/51/f62daec07d3b2943395d379a5ef24351.jpeg">
</var></a><a href="http://fastpic.ru/view/28/2012/0121/7f538d441c2254a8615f02c52aeba247.png.html" class="postLink"><var class="postImg" title="http://i28.fastpic.ru/thumb/2012/0121/47/7f538d441c2254a8615f02c52aeba247.jpeg">
</var></a>
<a href="http://fastpic.ru/" class="postLink"><div align="right"><var class="postImg postImgAligned img-right" title="http://i32.fastpic.ru/big/2012/0120/e8/8312d351833490f6154019926b6b99e8.jpg">
</var></a> <br><br> Исходник: DVD-5
Видео: MPEG2 | NTSC | 16x9 | 720x480 | 8000 Kbps
Аудио JAP: AC-3 | 48000Hz | 192 Kbps | 2ch
General
Complete name : H:\VIDEO_TS\VTS_01_3.VOB
Format : MPEG-PS
File size : 1 024 MiB
Duration : 17mn 9s
Overall bit rate : 8 343 Kbps <br><br> Video
ID : 224 (0xE0)
Format : MPEG Video
Format version : Version 2
Format profile : Main@Main
Format settings, BVOP : Yes
Format settings, Matrix : Custom
Format settings, GOP : M=3, N=15
Duration : 17mn 9s
Bit rate : 8 000 Kbps
Width : 720 pixels
Height : 480 pixels
Display aspect ratio : 16:9
Frame rate : 29.970 fps
Standard : NTSC
Color space : YUV
Chroma subsampling : 4:2:0
Bit depth : 8 bits
Scan type : Interlaced
Scan order : Top Field First
Compression mode : Lossy
Bits/(Pixel*Frame) : 0.772
Stream size : 980 MiB (96%) <br><br> Audio
ID : 189 (0xBD)-128 (0x80)
Format : AC-3
Format/Info : Audio Coding 3
Mode extension : CM (complete main)
Muxing mode : DVD-Video
Duration : 17mn 9s
Bit rate mode : Constant
Bit rate : 192 Kbps
Channel(s) : 2 channels
Channel positions : Front: L R
Sampling rate : 48.0 KHz
Bit depth : 16 bits
Compression mode : Lossy
Delay relative to video : -156ms
Stream size : 23.6 MiB (2%)
<a href="http://fastpic.ru/view/27/2012/0121/1ab63a5279d4e1350d482fe101cdc278.png.html" class="postLink"><var class="postImg" title="http://i27.fastpic.ru/thumb/2012/0121/78/1ab63a5279d4e1350d482fe101cdc278.jpeg">
</var></a>
<a href="http://fastpic.ru/view/30/2012/0121/ea087b123b4c32edbac41558f86ec559.png.html" class="postLink"><var class="postImg" title="http://i30.fastpic.ru/thumb/2012/0121/59/ea087b123b4c32edbac41558f86ec559.jpeg">
</var></a><a href="http://fastpic.ru/view/31/2012/0121/7fa849ab11dddc53fae41fdb310d58a2.png.html" class="postLink"><var class="postImg" title="http://i31.fastpic.ru/thumb/2012/0121/a2/7fa849ab11dddc53fae41fdb310d58a2.jpeg">
</var></a><a href="http://fastpic.ru/view/32/2012/0121/ac7ab13347d2a3440e7c3dea8362360a.png.html" class="postLink"><var class="postImg" title="http://i32.fastpic.ru/thumb/2012/0121/0a/ac7ab13347d2a3440e7c3dea8362360a.jpeg">
</var></a><a href="http://fastpic.ru/view/28/2012/0121/d6ed7f0645aba23052a218d13f5a1bd5.png.html" class="postLink"><var class="postImg" title="http://i28.fastpic.ru/thumb/2012/0121/d5/d6ed7f0645aba23052a218d13f5a1bd5.jpeg">
</var></a><a href="http://fastpic.ru/view/27/2012/0121/e220efc761070ef32917115eee02c494.png.html" class="postLink"><var class="postImg" title="http://i27.fastpic.ru/thumb/2012/0121/94/e220efc761070ef32917115eee02c494.jpeg">
</var></a><a href="http://fastpic.ru/view/27/2012/0121/78251f7e48e760182df58b6db3b91519.png.html" class="postLink"><var class="postImg" title="http://i27.fastpic.ru/thumb/2012/0121/19/78251f7e48e760182df58b6db3b91519.jpeg">
</var></a><a href="http://fastpic.ru/view/27/2012/0121/51e03a0570e38a04b0d4ba28960c51bb.png.html" class="postLink"><var class="postImg" title="http://i27.fastpic.ru/thumb/2012/0121/bb/51e03a0570e38a04b0d4ba28960c51bb.jpeg">
</var></a><a href="http://fastpic.ru/view/31/2012/0121/75b568a21efc5299113b41d83b6f6f73.png.html" class="postLink"><var class="postImg" title="http://i31.fastpic.ru/thumb/2012/0121/73/75b568a21efc5299113b41d83b6f6f73.jpeg">
</var></a>
<a href="http://fastpic.ru/" class="postLink"><div align="right"><var class="postImg postImgAligned img-right" title="http://i32.fastpic.ru/big/2012/0120/0c/0d85a4c77f3a958ad161acc2d2a0b60c.jpg">
</var></a> <br><br> Исходник: DVD-5
Видео: MPEG2 | NTSC | 16x9 | 720x480 | 8000 Kbps
Аудио JAP: AC-3 | 48000Hz | 192 Kbps | 2ch
General
Complete name : H:\VIDEO_TS\VTS_01_3.VOB
Format : MPEG-PS
File size : 1 024 MiB
Duration : 17mn 9s
Overall bit rate : 8 343 Kbps <br><br> Video
ID : 224 (0xE0)
Format : MPEG Video
Format version : Version 2
Format profile : Main@Main
Format settings, BVOP : Yes
Format settings, Matrix : Custom
Format settings, GOP : M=3, N=15
Duration : 17mn 9s
Bit rate : 8 000 Kbps
Width : 720 pixels
Height : 480 pixels
Display aspect ratio : 16:9
Frame rate : 29.970 fps
Standard : NTSC
Color space : YUV
Chroma subsampling : 4:2:0
Bit depth : 8 bits
Scan type : Interlaced
Scan order : Top Field First
Compression mode : Lossy
Bits/(Pixel*Frame) : 0.772
Stream size : 980 MiB (96%) <br><br> Audio
ID : 189 (0xBD)-128 (0x80)
Format : AC-3
Format/Info : Audio Coding 3
Mode extension : CM (complete main)
Muxing mode : DVD-Video
Duration : 17mn 9s
Bit rate mode : Constant
Bit rate : 192 Kbps
Channel(s) : 2 channels
Channel positions : Front: L R
Sampling rate : 48.0 KHz
Bit depth : 16 bits
Compression mode : Lossy
Delay relative to video : -169ms
Stream size : 23.6 MiB (2%)
<a href="http://fastpic.ru/view/28/2012/0121/c7aa10a8507a59154a8df8dac4849bfe.png.html" class="postLink"><var class="postImg" title="http://i28.fastpic.ru/thumb/2012/0121/fe/c7aa10a8507a59154a8df8dac4849bfe.jpeg">
</var></a>
<a href="http://fastpic.ru/view/31/2012/0121/1dc63b39f79eafce0d12b84282e19453.png.html" class="postLink"><var class="postImg" title="http://i31.fastpic.ru/thumb/2012/0121/53/1dc63b39f79eafce0d12b84282e19453.jpeg">
</var></a><a href="http://fastpic.ru/view/31/2012/0121/fe124d2a27015f1c34a33d6f014f9928.png.html" class="postLink"><var class="postImg" title="http://i31.fastpic.ru/thumb/2012/0121/28/fe124d2a27015f1c34a33d6f014f9928.jpeg">
</var></a><a href="http://fastpic.ru/view/30/2012/0121/67e162623f0fe361fec3cda54f0ee48c.png.html" class="postLink"><var class="postImg" title="http://i30.fastpic.ru/thumb/2012/0121/8c/67e162623f0fe361fec3cda54f0ee48c.jpeg">
</var></a><a href="http://fastpic.ru/view/31/2012/0121/68e1b9da7537c1e77bb7e5ac723b4cd4.png.html" class="postLink"><var class="postImg" title="http://i31.fastpic.ru/thumb/2012/0121/d4/68e1b9da7537c1e77bb7e5ac723b4cd4.jpeg">
</var></a><a href="http://fastpic.ru/view/30/2012/0121/6521ad72b3d32a80db8009a4cbf6ec31.png.html" class="postLink"><var class="postImg" title="http://i30.fastpic.ru/thumb/2012/0121/31/6521ad72b3d32a80db8009a4cbf6ec31.jpeg">
</var></a><a href="http://fastpic.ru/view/27/2012/0121/ef3e12d569227237c84a2fc43ac9bc95.png.html" class="postLink"><var class="postImg" title="http://i27.fastpic.ru/thumb/2012/0121/95/ef3e12d569227237c84a2fc43ac9bc95.jpeg">
</var></a><a href="http://fastpic.ru/view/32/2012/0121/52d2b2f5ce01cdc59f72485e7eb04469.png.html" class="postLink"><var class="postImg" title="http://i32.fastpic.ru/thumb/2012/0121/69/52d2b2f5ce01cdc59f72485e7eb04469.jpeg">
</var></a><a href="http://fastpic.ru/view/32/2012/0121/efa2be27c111cf42d03c0364c97f9ce2.png.html" class="postLink"><var class="postImg" title="http://i32.fastpic.ru/thumb/2012/0121/e2/efa2be27c111cf42d03c0364c97f9ce2.jpeg">
</var></a>


Внимание! AdBlock блокирует показ скриншотов, все вопросы к разработчикам )))

Трекер:  [ 13-Май-2012 13:26 ]

  

Скачать .torrent

Размер .torrent файла 35 KB


Размер: 13.96 GB
Хэш (hash) релиза: 0f933f4e32bae6d53690d3a28c83804ba7d94aca

Еще никто не оставлял запись к записи скачать торрент Makai Kishi Ingrid The Dark Knight Ingrid . Будь первым!

!Обратная связь