Скачать через торрент музыку Howard Shore & Various Artists - The Twilight Saga: Eclipse Сумерки. Сага. Затмение - 2010, FLAC бесплатно без регистрации torrent

Статистика раздачи
Размер:  511 MB   |    Зарегистрирован:  7 лет 8 месяцев   |    .torrent скачан:  87 раз   |   
Раздают:  1  
   
загрузка...
 
Автор Сообщение

Mos

avatar Mos


Howard Shore & Various Artists - The Twilight Saga: Eclipse / Сумерки. Сага. Затмение

Жанр: Soundtrack
Происхождение исполнителя: EU
Год издания данного носителя: 2010
Страна-производитель носителя: EU
Тип релиза: image+.cue
Аудио кодек: FLAC
Битрейт аудио: lossless
Продолжительность: 76:30
Треклист:
01. Metric - Eclipse (All Yours) [0:03:45.26]
02. Muse - Neutron Star Collision (Love Is Forever) [0:03:50.69]
03. The Bravery - Ours [0:03:47.96]
04. Florence + The Machine - Heavy In Your Arms [0:04:45.30]
05. Sia - My Love [0:05:11.24]
06. Fanfarlo - Atlas [0:03:27.20]
07. The Black Keys - Chop And Change [0:02:25.49]
08. The Dead Weather - Rolling In On A Burning Tire [0:03:54.13]
09. Beck And Bat For Lashes - Let's Get Lost [0:04:10.20]
10. Vampire Weekend - Jonathan Low [0:03:33.06]
11. UNKLE - With You In My Head (feat. The Black Angels) [0:04:43.80]
12. Eastern Conference Champions - A Million Miles An Hour [0:04:07.46]
13. Band Of Horses - Life On Earth [0:05:32.20]
14. Cee Lo Green - What Part Of Forever [0:03:58.64]
15. Howard Shore - Jacob's Theme [0:02:27.82]
16. MiMi - Don't You Mourn The Sun [0:03:43.17]
17. Battles - The Line [0:05:05.86]
18. Bombay Bicycle Club - How Can You Smallow So Much Sleep [0:03:00.22]

Код:

Exact Audio Copy V0.99 prebeta 5 from 4. May 2009

EAC extraction logfile from 7. June 2010, 12:53

Various / The Twilight Saga - Eclipse (18tr Deluxe Edition)

Used drive  : TSSTcorpCD/DVDW SH-S182M   Adapter: 0  ID: 0

Read mode               : Secure
Utilize accurate stream : Yes
Defeat audio cache      : Yes
Make use of C2 pointers : No

Read offset correction                      : 6
Overread into Lead-In and Lead-Out          : No
Fill up missing offset samples with silence : Yes
Delete leading and trailing silent blocks   : No
Null samples used in CRC calculations       : Yes
Used interface                              : Installed external ASPI interface

Used output format              : User Defined Encoder
Selected bitrate                : 768 kBit/s
Quality                         : High
Add ID3 tag                     : No
Command line compressor         : C:\Program Files\Exact Audio Copy\FLAC\FLAC.EXE
Additional command line options : -8 -V %s

TOC of the extracted CD

     Track |   Start  |  Length  | Start sector | End sector
    ---------------------------------------------------------
        1  |  0:00.00 |  3:45.20 |         0    |    16894   
        2  |  3:45.20 |  3:50.52 |     16895    |    34196   
        3  |  7:35.72 |  3:47.72 |     34197    |    51293   
        4  | 11:23.69 |  4:45.23 |     51294    |    72691   
        5  | 16:09.17 |  5:11.18 |     72692    |    96034   
        6  | 21:20.35 |  3:27.15 |     96035    |   111574   
        7  | 24:47.50 |  2:25.37 |    111575    |   122486   
        8  | 27:13.12 |  3:54.10 |    122487    |   140046   
        9  | 31:07.22 |  4:10.15 |    140047    |   158811   
       10  | 35:17.37 |  3:33.05 |    158812    |   174791   
       11  | 38:50.42 |  4:43.60 |    174792    |   196076   
       12  | 43:34.27 |  4:07.35 |    196077    |   214636   
       13  | 47:41.62 |  5:32.15 |    214637    |   239551   
       14  | 53:14.02 |  3:58.48 |    239552    |   257449   
       15  | 57:12.50 |  2:27.62 |    257450    |   268536   
       16  | 59:40.37 |  3:43.13 |    268537    |   285274   
       17  | 63:23.50 |  5:05.65 |    285275    |   308214   
       18  | 68:29.40 |  3:00.17 |    308215    |   321731   

Range status and errors

Selected range

     Filename C:\Music\Various - The Twilight Saga - Eclipse (18tr Deluxe Edition).wav

     Peak level 99.8 %
     Range quality 100.0 %
     Test CRC F89DFB6A
     Copy CRC F89DFB6A
     Copy OK

No errors occurred

 
AccurateRip summary
 
Track  1  not present in database
Track  2  not present in database
Track  3  not present in database
Track  4  not present in database
Track  5  not present in database
Track  6  not present in database
Track  7  not present in database
Track  8  not present in database
Track  9  not present in database
Track 10  not present in database
Track 11  not present in database
Track 12  not present in database
Track 13  not present in database
Track 14  not present in database
Track 15  not present in database
Track 16  not present in database
Track 17  not present in database
Track 18  not present in database
 
None of the tracks are present in the AccurateRip database

End of status report

Код:

REM GENRE Soundtrack
REM DATE 2010
REM DISCID 0F10C112
REM COMMENT "ExactAudioCopy v0.99pb5"
PERFORMER "Various"
TITLE "The Twilight Saga - Eclipse (18tr Deluxe Edition)"
FILE "Various - The Twilight Saga - Eclipse (18tr Deluxe Edition).flac" WAVE
  TRACK 01 AUDIO
    TITLE "Eclipse (All Yours)"
    PERFORMER "Metric"
    INDEX 01 00:00:00
  TRACK 02 AUDIO
    TITLE "Neutron Star Collision (Love Is Forever)"
    PERFORMER "Muse"
    INDEX 01 03:45:20
  TRACK 03 AUDIO
    TITLE "Ours"
    PERFORMER "The Bravery"
    INDEX 00 07:35:45
    INDEX 01 07:35:72
  TRACK 04 AUDIO
    TITLE "Heavy In Your Arms"
    PERFORMER "Florence + The Machine"
    INDEX 01 11:23:69
  TRACK 05 AUDIO
    TITLE "My Love"
    PERFORMER "Sia"
    INDEX 00 16:08:40
    INDEX 01 16:09:17
  TRACK 06 AUDIO
    TITLE "Atlas"
    PERFORMER "Fanfarlo"
    INDEX 00 21:20:12
    INDEX 01 21:20:35
  TRACK 07 AUDIO
    TITLE "Chop And Change"
    PERFORMER "The Black Keys"
    INDEX 01 24:47:50
  TRACK 08 AUDIO
    TITLE "Rolling In On A Burning Tire"
    PERFORMER "The Dead Weather"
    INDEX 00 27:12:65
    INDEX 01 27:13:12
  TRACK 09 AUDIO
    TITLE "Let's Get Lost"
    PERFORMER "Beck And Bat For Lashes"
    INDEX 00 31:06:72
    INDEX 01 31:07:22
  TRACK 10 AUDIO
    TITLE "Jonathan Low"
    PERFORMER "Vampire Weekend"
    INDEX 00 35:17:35
    INDEX 01 35:17:37
  TRACK 11 AUDIO
    TITLE "With You In My Head (feat. The Black Angels)"
    PERFORMER "UNKLE"
    INDEX 00 38:50:05
    INDEX 01 38:50:42
  TRACK 12 AUDIO
    TITLE "A Million Miles An Hour"
    PERFORMER "Eastern Conference Champions"
    INDEX 01 43:34:27
  TRACK 13 AUDIO
    TITLE "Life On Earth"
    PERFORMER "Band Of Horses"
    INDEX 00 47:41:40
    INDEX 01 47:41:62
  TRACK 14 AUDIO
    TITLE "What Part Of Forever"
    PERFORMER "Cee Lo Green"
    INDEX 00 53:12:20
    INDEX 01 53:14:02
  TRACK 15 AUDIO
    TITLE "Jacob's Theme"
    PERFORMER "Howard Shore"
    INDEX 00 57:11:22
    INDEX 01 57:12:50
  TRACK 16 AUDIO
    TITLE "Don't You Mourn The Sun"
    PERFORMER "MiMi"
    INDEX 01 59:40:37
  TRACK 17 AUDIO
    TITLE "The Line"
    PERFORMER "Battles"
    INDEX 01 63:23:50
  TRACK 18 AUDIO
    TITLE "How Can You Smallow So Much Sleep"
    PERFORMER "Bombay Bicycle Club"
    INDEX 01 68:29:40
Полиграфия: присутствует
З.ы Первая раздача в разделе музыки :)

Трекер:  [ 29-Ноя-2010 13:49 ]

  

Скачать .torrent

Размер .torrent файла 22 KB


Размер: 511 MB
Хэш (hash) релиза: 4ee30b0131c9755e90c3b41d03a181ea7a3ae156

Еще никто не оставлял запись к записи скачать торрент Howard Shore & Various Artists - The Twilight Saga: Eclipse Сумерки. Сага. Затмение - 2010, FLAC . Будь первым!

!Обратная связь