Скачать через торрент музыку Prince Of Persia: The Sands Of Time Принц Персии: Пески Времени - 2010, FLAC бесплатно без регистрации torrent

Статистика раздачи
Размер:  396 MB   |    Зарегистрирован:  7 лет 4 месяца   |    .torrent скачан:  93 раза   |   
Раздают:  1  
   
загрузка...
 
Автор Сообщение

Mos

avatar Mos


Prince Of Persia: The Sands Of Time / Принц Персии: Пески Времени

Жанр: Score
Происхождение исполнителя: USA
Год издания данного носителя: 2010
Страна-производитель носителя: USA
Тип релиза: image+.cue
Аудио кодек: FLAC
Битрейт аудио: lossless
Продолжительность: 66:27
Треклист:
01. The Prince Of Persia [0:05:20.34]
02. Raid On Alamut [0:06:32.76]
03. Tamina Unveiled [0:02:34.12]
04. The King And His Sons [0:02:59.06]
05. Dastan And Tamina Escape [0:04:30.98]
06. Journey Through The Desert [0:02:55.29]
07. Ostrich Race [0:00:58.94]
08. Running From Sheikh Amar [0:03:27.65]
09. Trusting Nizam [0:04:37.08]
10. Visions Of Death [0:01:46.90]
11. "So, You're Going to Help Me" [0:02:20.20]
12. The Oasis Ambush [0:01:54.34]
13. Hassansin Attack [0:02:59.76]
14. Return To Alamut [0:03:05.65]
15. No Ordinary Dagger [0:04:39.38]
16. The Passages [0:03:09.28]
17. The Sands Of Time [0:03:58.68]
18. Destiny [0:03:38.65]
19. Alanis Morissette - I Remain [0:04:57.44]

Код:

Exact Audio Copy V0.99 prebeta 5 from 4. May 2009

EAC extraction logfile from 27. May 2010, 14:48

Harry Gregson-Williams / Prince Of Persia: The Sands Of Time

Used drive : TSSTcorpCD/DVDW SH-S182M Adapter: 0 ID: 0

Read mode : Secure
Utilize accurate stream : Yes
Defeat audio cache : Yes
Make use of C2 pointers : No

Read offset correction : 6
Overread into Lead-In and Lead-Out : No
Fill up missing offset samples with silence : Yes
Delete leading and trailing silent blocks : No
Null samples used in CRC calculations : Yes
Used interface : Installed external ASPI interface

Used output format : User Defined Encoder
Selected bitrate : 768 kBit/s
Quality : High
Add ID3 tag : No
Command line compressor : C:\Program Files\Exact Audio Copy\FLAC\FLAC.EXE
Additional command line options : -8 -V %s

TOC of the extracted CD

Track | Start | Length | Start sector | End sector
---------------------------------------------------------
1 | 0:00.00 | 5:20.26 | 0 | 24025
2 | 5:20.26 | 6:32.57 | 24026 | 53482
3 | 11:53.08 | 2:34.09 | 53483 | 65041
4 | 14:27.17 | 2:59.05 | 65042 | 78471
5 | 17:26.22 | 4:30.74 | 78472 | 98795
6 | 21:57.21 | 2:55.22 | 98796 | 111942
7 | 24:52.43 | 0:58.71 | 111943 | 116363
8 | 25:51.39 | 3:27.49 | 116364 | 131937
9 | 29:19.13 | 4:37.06 | 131938 | 152718
10 | 33:56.19 | 1:46.68 | 152719 | 160736
11 | 35:43.12 | 2:20.15 | 160737 | 171251
12 | 38:03.27 | 1:54.26 | 171252 | 179827
13 | 39:57.53 | 2:59.57 | 179828 | 193309
14 | 42:57.35 | 3:05.49 | 193310 | 207233
15 | 46:03.09 | 4:39.29 | 207234 | 228187
16 | 50:42.38 | 3:09.21 | 228188 | 242383
17 | 53:51.59 | 3:58.51 | 242384 | 260284
18 | 57:50.35 | 3:38.49 | 260285 | 276683
19 | 61:29.09 | 4:57.33 | 276684 | 298991

Range status and errors

Selected range

Filename C:\Music\Harry Gregson-Williams - Prince Of Persia The Sands Of Time.wav

Peak level 99.8 %
Range quality 100.0 %
Test CRC E139F509
Copy CRC E139F509
Copy OK

No errors occurred

AccurateRip summary

Track 1 not present in database
Track 2 not present in database
Track 3 not present in database
Track 4 not present in database
Track 5 not present in database
Track 6 not present in database
Track 7 not present in database
Track 8 not present in database
Track 9 not present in database
Track 10 not present in database
Track 11 not present in database
Track 12 not present in database
Track 13 not present in database
Track 14 not present in database
Track 15 not present in database
Track 16 not present in database
Track 17 not present in database
Track 18 not present in database
Track 19 not present in database

None of the tracks are present in the AccurateRip database

End of status report

Код:

REM GENRE Soundtrack
REM DATE 2010
REM DISCID 1D0F9213
REM COMMENT "ExactAudioCopy v0.99pb5"
PERFORMER "Harry Gregson-Williams"
TITLE "Prince Of Persia: The Sands Of Time"
FILE "Harry Gregson-Williams - Prince Of Persia  The Sands Of Time.flac" WAVE
  TRACK 01 AUDIO
    TITLE "The Prince Of Persia"
    PERFORMER "Harry Gregson-Williams"
    INDEX 01 00:00:00
  TRACK 02 AUDIO
    TITLE "Raid On Alamut"
    PERFORMER "Harry Gregson-Williams"
    INDEX 01 05:20:26
  TRACK 03 AUDIO
    TITLE "Tamina Unveiled"
    PERFORMER "Harry Gregson-Williams"
    INDEX 01 11:53:08
  TRACK 04 AUDIO
    TITLE "The King And His Sons"
    PERFORMER "Harry Gregson-Williams"
    INDEX 01 14:27:17
  TRACK 05 AUDIO
    TITLE "Dastan And Tamina Escape"
    PERFORMER "Harry Gregson-Williams"
    INDEX 01 17:26:22
  TRACK 06 AUDIO
    TITLE "Journey Through The Desert"
    PERFORMER "Harry Gregson-Williams"
    INDEX 01 21:57:21
  TRACK 07 AUDIO
    TITLE "Ostrich Race"
    PERFORMER "Harry Gregson-Williams"
    INDEX 01 24:52:43
  TRACK 08 AUDIO
    TITLE "Running From Sheikh Amar"
    PERFORMER "Harry Gregson-Williams"
    INDEX 01 25:51:39
  TRACK 09 AUDIO
    TITLE "Trusting Nizam"
    PERFORMER "Harry Gregson-Williams"
    INDEX 01 29:19:13
  TRACK 10 AUDIO
    TITLE "Visions Of Death"
    PERFORMER "Harry Gregson-Williams"
    INDEX 01 33:56:19
  TRACK 11 AUDIO
    TITLE "'So, You're Going to Help Me'"
    PERFORMER "Harry Gregson-Williams"
    INDEX 01 35:43:12
  TRACK 12 AUDIO
    TITLE "The Oasis Ambush"
    PERFORMER "Harry Gregson-Williams"
    INDEX 01 38:03:27
  TRACK 13 AUDIO
    TITLE "Hassansin Attack"
    PERFORMER "Harry Gregson-Williams"
    INDEX 01 39:57:53
  TRACK 14 AUDIO
    TITLE "Return To Alamut"
    PERFORMER "Harry Gregson-Williams"
    INDEX 01 42:57:35
  TRACK 15 AUDIO
    TITLE "No Ordinary Dagger"
    PERFORMER "Harry Gregson-Williams"
    INDEX 01 46:03:09
  TRACK 16 AUDIO
    TITLE "The Passages"
    PERFORMER "Harry Gregson-Williams"
    INDEX 01 50:42:38
  TRACK 17 AUDIO
    TITLE "The Sands Of Time"
    PERFORMER "Harry Gregson-Williams"
    INDEX 01 53:51:59
  TRACK 18 AUDIO
    TITLE "Destiny"
    PERFORMER "Harry Gregson-Williams"
    INDEX 01 57:50:35
  TRACK 19 AUDIO
    TITLE "Alanis Morissette - I Remain"
    PERFORMER "Harry Gregson-Williams"
    INDEX 01 61:29:09
Полиграфия: присутствует

Трекер:  [ 29-Ноя-2010 13:57 ]

  

Скачать .torrent

Размер .torrent файла 17 KB


Размер: 396 MB
Хэш (hash) релиза: a307d42a15eccdc644613d473ea553070f79afcd

Еще никто не оставлял запись к записи скачать торрент Prince Of Persia: The Sands Of Time Принц Персии: Пески Времени - 2010, FLAC . Будь первым!

!Обратная связь