Скачать через торрент Звонок Ringu Фильм бесплатно в хорошем качестве torrent

Скачивайте на UnionPeer.org фильмы через торрент без регистрации. Новинки кино в хорошем качестве через торрент. На UnionPeer.org можно скачать через торрент фильмы 2014 и 2015 годов. Самые новые фильмы.

Скачать торрент Звонок Ringu бесплатно через .torrent фильм мультфильм сериал

Статистика раздачи
Размер:  1.45 GB   |    Зарегистрирован:  11 лет   |    .torrent скачан:  47 раз   |   
Раздают:  1  
 

Скачать Звонок / Ringu / Ring (Хидео Наката / Hideo Nakata) [1998, Япония, ужасы, HDRip] AVO (Сербин) через torrent

 
 
Автор Сообщение

Galfimbul

avatar Galfimbul


Звонок / Ringu / Ring

Страна: Япония
Жанр: ужасы, детектив
Год выпуска: 1998
Продолжительность: 01:35:18
Перевод: Авторский (одноголосый закадровый) Ю. Сербин
Cубтитры: нет
Режиссер: Хидео Наката / Hideo Nakata
В ролях: Нанако Мацусима , Мики Накатани, Юко Такэути, Хитоми Сато , Ёити Нумата, Ютака Мацусигэ, Кацуми Мурамацу, Рикия Отака, Масако , Дайскэ Бан, Kanehiro Ri, Юрэй Янаги

Молодая женщина-репортер расследует загадочное суеверие о смертоносной видеокассете. В доме того, кто посмотрит ее, сначала раздается странный звонок по телефону, еще чуть позже его находят мертвым.
После того, как, видимо, такой же смертью умирает ее племянница, репортерша решает взяться за расследование и сама смотрит злополучную кассету. Чуть позже в ее квартире раздается звонок...

Качество видео: HDRip / Sample
Исходник: BDRip 720p
Формат видео: AVI
Видео: 704x384 (1.83:1), 23.976 fps, XviD build 50 ~1789 kbps avg, 0.28 bit/pixel
Аудио: 48 kHz, AC3 Dolby Digital, 3/2 (L,C,R,l,r) + LFE ch, ~384 kbps
Общее
Полное имя : D:\Zvonok_Ringu_1998_HDRip_AVO_Serbin.avi
Формат : AVI
Формат/Информация : Audio Video Interleave
Размер файла : 1,45 Гбайт
Продолжительность : 1 ч. 35 м.
Общий поток : 2183 Кбит/сек
Программа кодирования : VirtualDubMod 1.5.10.3 | www.virtualdub-fr.org || (build 2550/release)
Библиотека кодирования : VirtualDubMod build 2550/release

Видео
Идентификатор : 0
Формат : MPEG-4 Visual
Профиль формата : Advanced Simple@L5
Параметр BVOP формата : 1
Параметр QPel формата : Нет
Параметр GMC формата : Без точки перехода
Параметр матрицы формата : Выборочная
Идентификатор кодека : XVID
Идентификатор кодека/Подсказка : XviD
Продолжительность : 1 ч. 35 м.
Битрейт : 1790 Кбит/сек
Ширина : 704 пикселя
Высота : 384 пикселя
Соотношение сторон : 1,85:1
Частота кадров : 23,976 кадра/сек
Цветовое пространство : YUV
Субдискретизация насыщенности : 4:2:0
Битовая глубина : 8 бит
Тип развёртки : Прогрессивная
Метод сжатия : С потерями
Бит/(Пиксели*Кадры) : 0.276
Размер потока : 1,19 Гбайт (82%)
Библиотека кодирования : XviD 1.2.1 (UTC 2008-12-04)

Аудио
Идентификатор : 1
Формат : AC-3
Формат/Информация : Audio Coding 3
Расширение режима : CM (complete main)
Параметр Endianness формата : Big
Идентификатор кодека : 2000
Продолжительность : 1 ч. 35 м.
Вид битрейта : Постоянный
Битрейт : 384 Кбит/сек
Каналы : 6 каналов
Расположение каналов : Front: L C R, Side: L R, LFE
Частота : 48,0 КГц
Битовая глубина : 16 бит
Метод сжатия : С потерями
Размер потока : 262 Мбайт (18%)
Выравнивание : Разделение по промежуткам
Продолжительность промежутка : 42 мс. (1,00 видеокадр)
Время предзагрузки промежутка : 500 мс.


Внимание! AdBlock блокирует показ скриншотов, все вопросы к разработчикам )))
Трекер:  [ 23-Июн-2012 13:24 ]

  

Скачать .torrent

Размер .torrent файла 15 KB


Размер: 1.45 GB
Хэш (hash) релиза: ffb40039127abc8a2bcc397100672300e104cdd4
Подписка на обновления:

Еще никто не оставлял запись к записи скачать торрент Звонок Ringu . Будь первым!

!Обратная связь