Скачать порно через торрент Troie anali Рабочая попка UnionPeer.org бесплатно онлайн HD качество

Скачать новое порно 2015, 2014 новинки через торрент UnionPeer.org

Порно торрент бесплатно ЮнионПир.орг

Статистика раздачи
Размер:  2.12 GB   |    Зарегистрирован:  11 лет   |    .torrent скачан:  394 раза   |   
Раздают:  1  
 

Скачать Troie anali / Рабочая попка (Rabbit Digital Video) [2011 г., Anal Sex, Blondes, Blowjob, Breasts (Tits), Brunettes, Bukkake, Cunnilingus, Cum shots, Double Penetration, Shaved, Topless, Young] через torrent

 
 
Автор Сообщение

Galfimbul

avatar Galfimbul


Troie anali / Рабочая попка
Год производства: 2011 г.
Страна: Италия
Жанр: Anal Sex, Blondes, Blowjob, Breasts (Tits), Brunettes, Bukkake, Cunnilingus, Cum shots, Double Penetration, Shaved, Topless, Young
Продолжительность: 02:27:24
Студия: Rabbit Digital Video

В ролях: Lucy Lee, Jenny, Jasmine Rouge, Jacqueline Stone, Thalia, Anita Queen, Vanessa Mae, Vanessa K.
Описание: Troie Anali is a showcase of pure anal sex between men and extremely hot women ready to get pounded over and over again. Anite Queen, Thalia, Jasmine Rouge, Vanessa K, Jacqueline Stone, Jenny, Vanessa, and Lucy Lee star in this feature. The Italians sure love to get down and dirty with swapping cum and gaping assholes as more!
Доп. информация: http://ct.vod.com/video/199942/Troie-Anali/?video_id=199942&CLICK=116186&ct=3996&ct=3996

Видео: Windows Media Video 9 768x576 25.00fps 1915Kbps
Аудио: Windows Media Audio 48000Hz stereo 128Kbps
Формат : Windows Media
Размер файла : 2,12 Гбайт
Продолжительность : 2 ч. 27 м.
Режим общего битрейта : Постоянный
Общий поток : 2058 Кбит/сек
Максимальный общий битрейт : 2062 Кбит/сек
Дата кодирования : UTC 2011-11-12 14:24:37.252
Правообладатель : AEBN.com
Рейтинг : Adults Only

Видео
Идентификатор : 2
Формат : VC-1
Профиль формата : MP@HL
Идентификатор кодека : WMV3
Идентификатор кодека/Информация : Windows Media Video 9
Идентификатор кодека/Подсказка : WMV3
Описание кодека : VC-1 - Main Profile
Продолжительность : 2 ч. 27 м.
Вид битрейта : Постоянный
Битрейт : 1915 Кбит/сек
Ширина : 768 пикселей
Высота : 576 пикселей
Соотношение сторон : 4:3
Частота кадров : 25,000 кадров/сек
Битовая глубина : 8 бит
Тип развёртки : Прогрессивная
Метод сжатия : С потерями
Бит/(Пиксели*Кадры) : 0.173
Размер потока : 1,97 Гбайт (93%)

Аудио
Идентификатор : 1
Формат : WMA
Версия формата : Version 2
Идентификатор кодека : 161
Идентификатор кодека/Информация : Windows Media Audio
Описание кодека : Windows Media Audio 9.2 - 128 kbps, 48 kHz, stereo (A/V) 1-pass CBR
Продолжительность : 2 ч. 27 м.
Вид битрейта : Постоянный
Битрейт : 128 Кбит/сек
Каналы : 2 канала
Частота : 48,0 КГц
Битовая глубина : 16 бит
Размер потока : 135 Мбайт (6%)


Внимание! AdBlock блокирует показ скриншотов, все вопросы к разработчикам )))

Трекер:  [ 03-Авг-2012 09:38 ]

  

Скачать .torrent

Размер .torrent файла 21 KB


Размер: 2.12 GB
Хэш (hash) релиза: 0293e333b7121f47431e1fa365554459ec8192b0

Еще никто не оставлял запись к записи скачать торрент Troie anali Рабочая попка . Будь первым!

!Обратная связь