Скачать через торрент Urotsukidoji vol. 1-5 + New Saga Urotsukidouji бесплатно русская версия torrent активатор

Статистика раздачи
Размер:  7.47 GB   |    Зарегистрирован:  11 лет   |    .torrent скачан:  1211 раз   |   
Раздают:  1   Качают:  1  
   
 
Автор Сообщение

Galfimbul

avatar Galfimbul


Urotsukidoji: Legend of the Overfiend (movie)
Уроцукидодзи: Легенда о Сверхдемоне (фильм)
Год производства: 1989 г.
Жанр: Horror, Fantasy, Tentacles, Demons
Серии: ep. 1 of 1
Продолжительность: 2 ч. 26 мин.
Цензура: Отсутствует

Язык: Японский [оригинальная озвучка]
Язык: Английский [субтитры встроенные неотключаемые/хардсаб]
Язык: Русский [субтитры внешние SRT]

Режиссер: Takayama Hideki
Студия: West Cape

Описание: Не всё сущее возможно узреть глазами смертных. Люди не верховные владыки мироздания. Мир состоит из трёх царств: людей, зверолюдей и демонов. И среди демонов бытует легенда о том, что раз в 3000 лет, рождается Сверхдемон. Он родится, и тогда, три царства объединятся в вечную империю, но все живое в них будут уничтожено. И этот час всё ближе… Множество обитателей других царств живёт в мире людей. Один из них, Амано Дзяку из царства зверолюдей, ещё 300 лет назад отправился в наш мир, чтобы предотвратить всеобщий апокалипсис. Но его миссия оказалась невероятно трудной: ведь чудовищные приспешники зла не дремлют, а узнать самого Сверхдемона среди юных обитателей Токио очень непросто!

Доп. информация: WorldArt, AniDB.

Качество видео: DVDRip
Формат видео: AVI
Видео: DivX, 720×480 (4:3), 29.970 fps, 1200 Kbps
Аудио: Japanese, MP3, 48.0 KHz, 128 Kbps, 2 channels
D:\Anime\Urotsukidoji_Full_Collection\01_Urotsukidoji_Legend_of_the_Overfiend_1989\Urotsukidoji - The_Legend_Of_The_Overfiend.avi
General
Complete name : D:\Anime\Urotsukidoji_Full_Collection\01_Urotsukidoji_Legend_of_the_Overfiend_1989\Urotsukidoji - The_Legend_Of_The_Overfiend.avi
Format : AVI
Format/Info : Audio Video Interleave
File size : 1.37 GiB
Duration : 2h 26mn
Overall bit rate : 1 342 Kbps
Video #0
ID : 0
Format : MPEG-4 Visual
Format profile : Simple@L1
Format settings, BVOP : No
Format settings, QPel : No
Format settings, GMC : No warppoints
Format settings, Matrix : Default (H.263)
Codec ID : DIVX
Codec ID/Info : Project Mayo
Codec ID/Hint : DivX 4
Duration : 2h 26mn
Bit rate : 1 200 Kbps
Width : 720 pixels
Height : 480 pixels
Display aspect ratio : 4:3
Frame rate : 29.970 fps
Standard : NTSC
Color space : YUV
Chroma subsampling : 4:2:0
Bit depth : 8 bits
Scan type : Progressive
Compression mode : Lossy
Bits/(Pixel*Frame) : 0.116
Stream size : 1.23 GiB (89%)
Writing library : avc2.0.11.1110
Audio #1
ID : 1
Format : MPEG Audio
Format version : Version 1
Format profile : Layer 3
Mode : Joint stereo
Mode extension : MS Stereo
Codec ID : 55
Codec ID/Hint : MP3
Duration : 2h 26mn
Bit rate mode : Constant
Bit rate : 128 Kbps
Channel(s) : 2 channels
Sampling rate : 48.0 KHz
Compression mode : Lossy
Stream size : 134 MiB (10%)
Alignment : Aligned on interleaves
Interleave, duration : 24 ms (0.72 video frame)

Urotsukidoji II: Legend of the Demon Womb (movie)
Уроцукидодзи: Легенда о Сверхдемоне 2 (фильм)
Год производства: 1991 г.
Жанр: Horror, Fantasy, Tentacles, Demons
Серии: ep. 1 of 1
Продолжительность: 1 ч. 37 мин.
Цензура: Отсутствует

Язык: Японский [оригинальная озвучка]
Язык: Английский [субтитры встроенные неотключаемые/хардсаб]
Язык: Русский [субтитры внешние SRT]

Описание: Злой волшебник Мюнхгаузен хочет завладеть силой, превосходящей силу Тетзина и управлять миром.

Доп. информация: WorldArt, AniDB.

Качество видео: DVDRip
Формат видео: AVI
Видео: DivX, 720×480 (4:3), 29.970 fps, 1200 Kbps
Аудио: Japanese, MP3, 48.0 KHz, 128 Kbps, 2 channels
D:\Anime\Urotsukidoji_Full_Collection\02_Urotsukidoji_II_Legend_of_the_Demon_Womb_1990\Urotsukidoji_2 - The Legend_Of_The_Demon_Womb.avi
General
Complete name : D:\Anime\Urotsukidoji_Full_Collection\02_Urotsukidoji_II_Legend_of_the_Demon_Womb_1990\Urotsukidoji_2 - The Legend_Of_The_Demon_Womb.avi
Format : AVI
Format/Info : Audio Video Interleave
File size : 937 MiB
Duration : 1h 37mn
Overall bit rate : 1 342 Kbps
Video #0
ID : 0
Format : MPEG-4 Visual
Format profile : Simple@L1
Format settings, BVOP : No
Format settings, QPel : No
Format settings, GMC : No warppoints
Format settings, Matrix : Default (H.263)
Codec ID : DIVX
Codec ID/Info : Project Mayo
Codec ID/Hint : DivX 4
Duration : 1h 37mn
Bit rate : 1 200 Kbps
Width : 720 pixels
Height : 480 pixels
Display aspect ratio : 4:3
Frame rate : 29.970 fps
Standard : NTSC
Color space : YUV
Chroma subsampling : 4:2:0
Bit depth : 8 bits
Scan type : Progressive
Compression mode : Lossy
Bits/(Pixel*Frame) : 0.116
Stream size : 838 MiB (89%)
Writing library : avc2.0.11.1110
Audio #1
ID : 1
Format : MPEG Audio
Format version : Version 1
Format profile : Layer 3
Mode : Joint stereo
Mode extension : MS Stereo
Codec ID : 55
Codec ID/Hint : MP3
Duration : 1h 37mn
Bit rate mode : Constant
Bit rate : 128 Kbps
Channel(s) : 2 channels
Sampling rate : 48.0 KHz
Compression mode : Lossy
Stream size : 89.4 MiB (10%)
Alignment : Aligned on interleaves
Interleave, duration : 24 ms (0.72 video frame)

Urotsukidoji III: Return of the Overfiend
Уроцукидодзи: Легенда о Сверхдемоне 3
Год производства: 1992-1993 гг.
Жанр: Horror, Fantasy, Tentacles, Demons
Серии: ep. 1-4 of 4
Продолжительность: 4 эп. × 50 мин.
Цензура: Есть

Язык: Японский [оригинальная озвучка]
Язык: Английский [субтитры встроенные неотключаемые/хардсаб]

Описание: Двадцать пять лет назад, мир был уничтожен. С приходом Сверхдемона, Бога всех богов, человеческий мир, мир демонов, и мир зверей рухнули вместе в хаос. С обещанием, что он родится через 100 лет, чтобы заново создать разрушенный мир, Сверхдемон спал в утробе матери. Но что-то пошло не так...

Доп. информация: WorldArt, AniDB.

Качество видео: DVDRip
Формат видео: AVI
Видео: DivX, 640×464, 20.000 fps, 1187 Kbps
Аудио: Japanese, MP3, 48.0 KHz, 128 Kbps, 2 channels
D:\Anime\Urotsukidoji_Full_Collection\03_Urotsukidoji_III_Return_of_the_Overfiend_Ep1-4_of_4_1992 \Urotsukidoji_III - 01.avi
General
Complete name : D:\Anime\Urotsukidoji_Full_Collection\03_Urotsukidoji_III_Return_of_the_Overfiend_Ep1-4_of_4_1992 \Urotsukidoji_III - 01.avi
Format : AVI
Format/Info : Audio Video Interleave
File size : 415 MiB
Duration : 43mn 52s
Overall bit rate : 1 323 Kbps
Writing library : VirtualDub build 14328/release
Video #0
ID : 0
Format : MPEG-4 Visual
Codec ID : DIV3
Codec ID/Hint : DivX 3 Low
Duration : 43mn 52s
Bit rate : 1 187 Kbps
Width : 640 pixels
Height : 464 pixels
Display aspect ratio : 1.379
Frame rate : 20.000 fps
Color space : YUV
Chroma subsampling : 4:2:0
Bit depth : 8 bits
Compression mode : Lossy
Bits/(Pixel*Frame) : 0.200
Stream size : 372 MiB (90%)
Audio #1
ID : 1
Format : MPEG Audio
Format version : Version 1
Format profile : Layer 3
Mode : Joint stereo
Mode extension : MS Stereo
Codec ID : 55
Codec ID/Hint : MP3
Duration : 43mn 52s
Bit rate mode : Constant
Bit rate : 128 Kbps
Channel(s) : 2 channels
Sampling rate : 48.0 KHz
Compression mode : Lossy
Stream size : 40.2 MiB (10%)
Alignment : Split accross interleaves
Interleave, duration : 50 ms (1.00 video frame)
Interleave, preload duration : 500 ms
Writing library : LAME3.93
Encoding settings : -m j -V 4 -q 2 -lowpass 15 -b 128

Urotsukidoji IV: Inferno Road
Уроцукидодзи: Легенда о Сверхдемоне 4
Год производства: 1993-1995 гг.
Жанр: Horror, Fantasy, Tentacles, Demons
Серии: ep. 1-3 of 3 + спэшл (Alternate Ending)
Продолжительность: 3 эп. × 45 мин.
Цензура: Есть

Язык: Английский [профессиональная озвучка]
Язык: Русский [субтитры внешние SRT]
Язык: Немецкий [субтитры встроенные отключаемые SRT] в спэшле

Описание: Амано Дзяку понимает, что ошибся. Зверодемон Буджу - вовсе не Владыка Хаоса, возрождения которого так опасался пробудившийся Сверхдемон, Зловещий колдун Мюнхгаузен вызывает к жизни чудовище Фабунила, звердемоны восстают и штурмуют дворец Цезаря, в направлении Осаки стартуют ядерные ракеты, Мегуми и Амано Дзяку сражаются из последних сил, а Буджу и Хими отправляются на судьбоносную встречу со Сверхдемоном...

Доп. информация: WorldArt, AniDB.

Качество видео: DVDRip
Формат видео: AVI
Видео: XviD, 640×480 (4:3), 23.976 fps, 1556 Kbps
Аудио: English, MP3, 48.0 KHz, 128 Kbps, 2 channels
D:\Anime\Urotsukidoji_Full_Collection\04_Urotsukidoji_IV - Inferno_Road_Ep1-3_of_3_1994\Urotsukidoji_IV - 01.avi
General
Complete name : D:\Anime\Urotsukidoji_Full_Collection\04_Urotsukidoji_IV - Inferno_Road_Ep1-3_of_3_1994\Urotsukidoji_IV - 01.avi
Format : AVI
Format/Info : Audio Video Interleave
File size : 500 MiB
Duration : 41mn 20s
Overall bit rate : 1 691 Kbps
Writing application : VirtualDubMod 1.5.4.1 (build 2178/release)
Writing library : VirtualDubMod build 2178/release
Video #0
ID : 0
Format : MPEG-4 Visual
Format profile : Advanced Simple@L5
Format settings, BVOP : No
Format settings, QPel : No
Format settings, GMC : No warppoints
Format settings, Matrix : Custom
Codec ID : XVID
Codec ID/Hint : XviD
Duration : 41mn 20s
Bit rate : 1 556 Kbps
Width : 640 pixels
Height : 480 pixels
Display aspect ratio : 4:3
Frame rate : 23.976 fps
Color space : YUV
Chroma subsampling : 4:2:0
Bit depth : 8 bits
Scan type : Progressive
Compression mode : Lossy
Bits/(Pixel*Frame) : 0.211
Stream size : 460 MiB (92%)
Writing library : XviD 1.2.0SMP (UTC 2006-01-08)
Audio #1
ID : 1
Format : MPEG Audio
Format version : Version 1
Format profile : Layer 3
Mode : Joint stereo
Mode extension : MS Stereo
Codec ID : 55
Codec ID/Hint : MP3
Duration : 41mn 20s
Bit rate mode : Constant
Bit rate : 128 Kbps
Channel(s) : 2 channels
Sampling rate : 48.0 KHz
Compression mode : Lossy
Stream size : 37.9 MiB (8%)
Alignment : Aligned on interleaves
Interleave, duration : 83 ms (2.00 video frames)
Interleave, preload duration : 504 ms
Writing library : LAME3.97b
Encoding settings : -m j -V 4 -q 2 -lowpass 17 -b 128
Language : English

Urotsukidoji V: The Final Chapter
Уроцукидодзи: Легенда о Сверхдемоне 5
Год производства: 1996 г.
Жанр: Horror, Fantasy, Tentacles, Demons, Futanari
Серии: ep. 1 of 1
Продолжительность: 59 мин.
Цензура: Есть во всех файлах

Язык: Японский [оригинальная озвучка]
Язык: Английский [субтитры встроенные неотключаемые/хардсаб]

Описание: Эпизод, завершающий оригинальную историю о Сверхдемоне.

Доп. информация: WorldArt, AniDB.

Качество видео: DVDRip [EROBEAT]
Формат видео: MP4
Видео: H.264/AVC, 640×480 (4:3), 23.976 fps, 2085 Kbps
Аудио: Japanese, AAC, 48.0 KHz, 92.6 Kbps, 2 channels
D:\Anime\[EROBEAT] Urotsukidoji V\[EROBEAT]_Urotsukidoji_V_-_01_[x264][3D0C4430].mp4
General
Complete name : D:\Anime\[EROBEAT] Urotsukidoji V\[EROBEAT]_Urotsukidoji_V_-_01_[x264][3D0C4430].mp4
Format : MPEG-4
Format profile : Base Media
Codec ID : isom
File size : 933 MiB
Duration : 59mn 47s
Overall bit rate mode : Variable
Overall bit rate : 2 181 Kbps
Encoded date : UTC 2012-08-17 03:17:17
Tagged date : UTC 2012-08-17 03:17:17
Video #1
ID : 1
Format : AVC
Format/Info : Advanced Video Codec
Format profile : <a href="mailto:[email protected]" class="postLink">[email protected]</a>
Format settings, CABAC : Yes
Format settings, ReFrames : 8 frames
Codec ID : avc1
Codec ID/Info : Advanced Video Coding
Duration : 59mn 47s
Bit rate : 2 085 Kbps
Maximum bit rate : 9 915 Kbps
Width : 640 pixels
Height : 480 pixels
Display aspect ratio : 4:3
Frame rate mode : Constant
Frame rate : 23.976 fps
Color space : YUV
Chroma subsampling : 4:2:0
Bit depth : 8 bits
Scan type : Progressive
Bits/(Pixel*Frame) : 0.283
Stream size : 892 MiB (96%)
Writing library : x264 core 125 r2200 999b753
Encoding settings : cabac=1 / ref=8 / deblock=1:0:0 / analyse=0x3:0x113 / me=umh / subme=9 / psy=1 / psy_rd=1.00:0.00 / mixed_ref=1 / me_range=16 / chroma_me=1 / trellis=2 / 8x8dct=1 / cqm=0 / deadzone=6,6 / fast_pskip=1 / chroma_qp_offset=0 / threads=12 / lookahead_threads=2 / sliced_threads=0 / nr=0 / decimate=0 / interlaced=0 / bluray_compat=0 / constrained_intra=0 / bframes=3 / b_pyramid=2 / b_adapt=2 / b_bias=0 / direct=3 / weightb=1 / open_gop=0 / weightp=2 / keyint=240 / keyint_min=22 / scenecut=40 / intra_refresh=0 / rc_lookahead=40 / rc=2pass / mbtree=1 / bitrate=2085 / ratetol=1.0 / qcomp=0.80 / qpmin=0 / qpmax=51 / qpstep=4 / cplxblur=20.0 / qblur=0.5 / vbv_maxrate=50000 / vbv_bufsize=50000 / nal_hrd=none / ip_ratio=1.10 / aq=1:1.00
Encoded date : UTC 2012-08-17 03:17:17
Tagged date : UTC 2012-08-17 03:17:23
Audio #2
ID : 2
Format : AAC
Format/Info : Advanced Audio Codec
Format profile : LC
Codec ID : 40
Duration : 59mn 47s
Bit rate mode : Variable
Bit rate : 92.6 Kbps
Maximum bit rate : 134 Kbps
Channel(s) : 2 channels
Channel positions : Front: L R
Sampling rate : 48.0 KHz
Compression mode : Lossy
Stream size : 39.6 MiB (4%)
Encoded date : UTC 2012-08-17 03:17:22
Tagged date : UTC 2012-08-17 03:17:23

The Urotsuki
Уроцукидодзи: Новая сага
Год производства: 2002 г.
Жанр: Dark Fantasy, Demons, Students, Horror, Rape, Super Power, Tentacles, Violence, Virgins
Серии: ep. 1-3 of 3
Продолжительность: 3 эп. × 45 мин.
Цензура: Отсутствует

Язык: Японский [оригинальная озвучка]
Язык: Английский [субтитры встроенные неотключаемые/хардсаб]
Язык: Русский [субтитры внешние SRT]

Описание: Бессмертный человек животноподобного происхождения с сверхъестественной сексуальной жаждой, Амано Дзяку избегает тюрьмы, чтобы удовлетворить его аппетиты в колледже Мэйсин. Но университетский городок не только рассадник сочных студенток - это - нерестилище отвратительного монстра!

Доп. информация: WorldArt, AniDB.

Качество видео: DVDRip
Формат видео: AVI
Видео: XviD, 640×480 (4:3), 23.976 fps, 912 Kbps
Аудио: Japanese, MP3, 44.1 KHz, 128 Kbps, 2 channels
D:\Anime\Urotsukidoji_Full_Collection\06_Urotsukidoji_New_Saga_Ep1-3_of_3_2002\Urotsukidoji_New_Saga - 01.avi
General
Complete name : D:\Anime\Urotsukidoji_Full_Collection\06_Urotsukidoji_New_Saga_Ep1-3_of_3_2002\Urotsukidoji_New_Saga - 01.avi
Format : AVI
Format/Info : Audio Video Interleave
File size : 338 MiB
Duration : 44mn 52s
Overall bit rate : 1 052 Kbps
Writing application : Nandub v1.0rc2
Writing library : Nandub build 1853/release
Video #0
ID : 0
Format : MPEG-4 Visual
Format profile : Advanced Simple@L5
Format settings, BVOP : 2
Format settings, QPel : Yes
Format settings, GMC : 3 warppoints
Format settings, Matrix : Default (H.263)
Codec ID : XVID
Codec ID/Hint : XviD
Duration : 44mn 52s
Bit rate : 912 Kbps
Width : 640 pixels
Height : 480 pixels
Display aspect ratio : 4:3
Frame rate : 23.976 fps
Color space : YUV
Chroma subsampling : 4:2:0
Bit depth : 8 bits
Scan type : Progressive
Compression mode : Lossy
Bits/(Pixel*Frame) : 0.124
Stream size : 293 MiB (87%)
Writing library : XviD 1.0.0 RC3 (Nihao) (UTC 2004-03-22)
Audio #1
ID : 1
Format : MPEG Audio
Format version : Version 1
Format profile : Layer 3
Mode : Joint stereo
Mode extension : MS Stereo
Codec ID : 55
Codec ID/Hint : MP3
Duration : 44mn 52s
Bit rate mode : Constant
Bit rate : 128 Kbps
Channel(s) : 2 channels
Sampling rate : 44.1 KHz
Compression mode : Lossy
Stream size : 41.1 MiB (12%)
Alignment : Aligned on interleaves
Interleave, duration : 26 ms (0.63 video frame)
Interleave, preload duration : 496 ms


Внимание! AdBlock блокирует показ скриншотов, все вопросы к разработчикам )))

Трекер:  [ 26-Авг-2012 12:33 ]

  

Скачать .torrent

Размер .torrent файла 22 KB


Размер: 7.47 GB
Хэш (hash) релиза: 4843374225402bdd1d33b8a4bb3ec8b12d9f4039

Еще никто не оставлял запись к записи скачать торрент Urotsukidoji vol. 1-5 + New Saga Urotsukidouji . Будь первым!

!Обратная связь