Скачать через торрент Ночная смена Смена кладбища Фильм бесплатно в хорошем качестве torrent

Скачивайте на UnionPeer.org фильмы через торрент без регистрации. Новинки кино в хорошем качестве через торрент. На UnionPeer.org можно скачать через торрент фильмы 2014 и 2015 годов. Самые новые фильмы.

Скачать торрент Ночная смена Смена кладбища бесплатно через .torrent фильм мультфильм сериал

Статистика раздачи
Размер:  1.46 GB   |    Зарегистрирован:  6 лет 10 месяцев   |    .torrent скачан:  132 раза   |   
Раздают:  1  
   
загрузка...
 
Автор Сообщение

Galfimbul

avatar Galfimbul


Ночная смена / Смена кладбища / Graveyard Shift

Страна: США, Япония
Жанр: ужасы
Год выпуска: 1990
Продолжительность: 01:25:53
Перевод: Профессиональный (многоголосый закадровый) NORD videofilm
Cубтитры: нет
Режиссер: Ральф С. Синглтон / Ralph S. Singleton
В ролях: Дэвид Эндрюс, Келли Вульф, Стефен Махт, Эндрю Дивофф, Вик Полицос, Брэд Дуриф, Роберт Алан Бойт, Илона Марголис, Джимми Вудард, Джонатан Эмерсон
Описание: Гейтсхолл — маленький заброшенный американский городишко. Расположенная неподалеку от кладбища и пришедшая со временем в упадок ткацкая фабрика стала прибежищем полчища крыс. Группа рабочих спускается в подвал, чтобы расчистить его. В результате аварии они оказываются в западне — в царстве страха и ужаса.
Качество видео: DVDRip
Формат видео: AVI
Видео: 704x384 (1.83:1), 23.976 fps, XviD build 65 ~2230 kbps avg, 0.34 bit/pixel
Аудио: 48 kHz, AC3 Dolby Digital, 2/0 (L,R) ch, ~192 kbps
General
Complete name : D:\Релизы\Graveyard Shift.1990.RUS.DVDRip.XviD.AC3.avi
Format : AVI
Format/Info : Audio Video Interleave
File size : 1.46 GiB
Duration : 1h 25mn
Overall bit rate : 2 432 Kbps
Writing application : VirtualDubMod 1.5.10.2 (build 2540/release)
Writing library : VirtualDubMod build 2540/release

Video
ID : 0
Format : MPEG-4 Visual
Format profile : Advanced Simple@L5
Format settings, BVOP : 1
Format settings, QPel : No
Format settings, GMC : No warppoints
Format settings, Matrix : Custom
Codec ID : XVID
Codec ID/Hint : XviD
Duration : 1h 25mn
Bit rate : 2 230 Kbps
Width : 704 pixels
Height : 384 pixels
Display aspect ratio : 1.85:1
Frame rate : 23.976 fps
Color space : YUV
Chroma subsampling : 4:2:0
Bit depth : 8 bits
Scan type : Progressive
Compression mode : Lossy
Bits/(Pixel*Frame) : 0.344
Stream size : 1.34 GiB (92%)
Writing library : XviD 65

Audio
ID : 1
Format : AC-3
Format/Info : Audio Coding 3
Mode extension : CM (complete main)
Format settings, Endianness : Big
Codec ID : 2000
Duration : 1h 25mn
Bit rate mode : Constant
Bit rate : 192 Kbps
Channel(s) : 2 channels
Channel positions : Front: L R
Sampling rate : 48.0 KHz
Bit depth : 16 bits
Compression mode : Lossy
Stream size : 118 MiB (8%)
Alignment : Split accross interleaves
Interleave, duration : 42 ms (1.00 video frame)
Interleave, preload duration : 500 ms


Трекер:  [ 19-Сен-2012 22:09 ]

  

Скачать .torrent

Размер .torrent файла 15 KB


Размер: 1.46 GB
Хэш (hash) релиза: d8c9291e09fb2456965f4e11183425829a977401
Подписка на обновления:

Еще никто не оставлял запись к записи скачать торрент Ночная смена Смена кладбища . Будь первым!

!Обратная связь